Правила форума

  • В этом разделе создание новых тем Запрещено.
  • Для создания новых тем пользуйтесь Корневым разделом DVD и HD фильмы.
Начать новую темуОтветить на тему  [ Сообщений: 4 ] 
Торрент файл
Размер: 7.94 GB • Зарегистрирован: 5 лет 1 месяц • Статус: Проверено
Скачан: 53 раза • Желающих скачать: 0 • Поблагодарили: 8 раз
 Раздают: 0  |  0 KB/s  ]   Качают: 0  |  0 KB/s  ] 
 Полного источника не было 9 месяцев 
Сообщения
 Добавлено: 2011-10-27 13:04
Модератор релиз-группы
Аватара пользователя
Стаж: 9 лет 1 месяц
Возраст: 97
Сообщений: 11660
Спасибок: 6533
Лайков: 269
Таможня дает добро / Rien à déclarer
«Бельгийские вафли vs. лягушачьи лапки»

Изображение

Страна: Франция
Жанр: Комедия
Год выпуска: 2010
Продолжительность: 01:48:19
Перевод: Профессиональный (дублированный) R5
Оригинальная аудиодорожка
Cубтитры: русские, украинские


Режиссер: Дэни Бун / Dany Boon

В ролях: Бенуа Пульворд, Дэни Бун, Джули Бернард, Карин Виар, Франсуа Дамиенс, Боли Ланнерс, Оливье Гурме, Мишель Вюйермоз

Описание: История двух недотеп-таможенников, француза и бельгийца. Не испытывая особой приязни друг к другу, они, тем не менее, вынуждены стать напарниками и принимать участие в рискованной операции…
Изображение
Качество: BDRip 1080p
Формат: MKV
Видео: AVC High Profile 4.0, 1920х824, 24.000 fps, 8 602 Kbps
Аудио: AC3, 5.1 ch, 384 Kbps, 48000 Hz - Дубляж, R5
Аудио 2: DTS, 5.1 ch, 1510 Kbps, 48000 Hz - Французский
Cубтитры: русские, украинские
Присутствует навигация по главам

скриншоты
Изображение

Изображение

Изображение

Изображение
Свернуть
Mi
Format : Matroska
Format version : Version 2
File size : 7.94 GiB
Duration : 1h 48mn
Overall bit rate : 10.5 Mbps
Encoded date : UTC 2011-10-19 16:36:37
Writing application : mkvmerge v2.9.8 ('C'est le bon') built on Aug 13 2009 12:49:06
Writing library : libebml v0.7.7 + libmatroska v0.8.1

Video
ID : 1
Format : AVC
Format/Info : Advanced Video Codec
Format profile : High@L4.0
Format settings, CABAC : Yes
Format settings, ReFrames : 5 frames
Format settings, GOP : M=1, N=2
Codec ID : V_MPEG4/ISO/AVC
Duration : 1h 48mn
Bit rate : 8 602 Kbps
Width : 1 920 pixels
Height : 824 pixels
Display aspect ratio : 2.35:1
Frame rate : 24.000 fps
Color space : YUV
Chroma subsampling : 4:2:0
Bit depth : 8 bits
Scan type : Progressive
Bits/(Pixel*Frame) : 0.227
Stream size : 6.35 GiB (80%)
Writing library : x264 core 115 r1995 c1e60b9
Encoding settings : cabac=1 / ref=5 / deblock=1:0:0 / analyse=0x3:0x113 / me=umh / subme=7 / psy=1 / psy_rd=1.00:0.00 / mixed_ref=1 / me_range=16 / chroma_me=1 / trellis=1 / 8x8dct=1 / cqm=0 / deadzone=21,11 / fast_pskip=1 / chroma_qp_offset=-2 / threads=12 / sliced_threads=0 / nr=0 / decimate=1 / interlaced=0 / bluray_compat=0 / constrained_intra=0 / bframes=3 / b_pyramid=2 / b_adapt=1 / b_bias=0 / direct=3 / weightb=1 / open_gop=0 / weightp=2 / keyint=250 / keyint_min=24 / scenecut=40 / intra_refresh=0 / rc_lookahead=40 / rc=2pass / mbtree=1 / bitrate=8602 / ratetol=1.0 / qcomp=0.60 / qpmin=0 / qpmax=69 / qpstep=4 / cplxblur=20.0 / qblur=0.5 / ip_ratio=1.40 / aq=1:1.00
Language : English

Audio #1
ID : 2
Format : AC-3
Format/Info : Audio Coding 3
Mode extension : CM (complete main)
Codec ID : A_AC3
Duration : 1h 48mn
Bit rate mode : Constant
Bit rate : 384 Kbps
Channel(s) : 6 channels
Channel positions : Front: L C R, Side: L R, LFE
Sampling rate : 48.0 KHz
Bit depth : 16 bits
Compression mode : Lossy
Stream size : 298 MiB (4%)
Title : AC3 5.1 @ 384 Kbps - Дубляж, R5
Language : Russian

Audio #2
ID : 3
Format : DTS
Format/Info : Digital Theater Systems
Codec ID : A_DTS
Duration : 1h 48mn
Bit rate mode : Constant
Bit rate : 1 510 Kbps
Channel(s) : 6 channels
Channel positions : Front: L C R, Side: L R, LFE
Sampling rate : 48.0 KHz
Bit depth : 24 bits
Compression mode : Lossy
Delay relative to video : 11ms
Stream size : 1.14 GiB (14%)
Title : DTS 5.1 @ 1510 Kbps
Language : French

Text #1
ID : 4
Format : UTF-8
Codec ID : S_TEXT/UTF8
Codec ID/Info : UTF-8 Plain Text
Title : Субтитры R5
Language : Russian

Text #2
ID : 5
Format : UTF-8
Codec ID : S_TEXT/UTF8
Codec ID/Info : UTF-8 Plain Text
Title : Субтитры R5
Language : Ukrainian

Menu
00:00:00.000 : en:00:00:00.000
00:07:50.875 : en:00:07:50.875
00:13:31.833 : en:00:13:31.833
00:18:21.125 : en:00:18:21.125
00:25:39.375 : en:00:25:39.375
00:30:17.375 : en:00:30:17.375
00:37:58.292 : en:00:37:58.292
00:43:45.375 : en:00:43:45.375
00:48:01.333 : en:00:48:01.333
00:54:16.750 : en:00:54:16.750
00:59:57.542 : en:00:59:57.542
01:04:01.083 : en:01:04:01.083
01:10:19.583 : en:01:10:19.583
01:16:03.750 : en:01:16:03.750
01:20:25.250 : en:01:20:25.250
01:28:02.333 : en:01:28:02.333
01:34:12.583 : en:01:34:12.583
01:39:12.667 : en:01:39:12.667
01:44:11.917 : en:01:44:11.917
01:48:18.792 : en:01:48:18.792
Свернуть
_________________
Изображение
Не в сети
Профиль  
 Добавлено: 2011-10-29 17:19 (спустя 2 дня 4 часа)
Аватара пользователя
Стаж: 7 лет 2 месяца
Сообщений: 333
Спасибок: 989
Лайков: 9
Долго вы ребят, я уж с внешки стянул)
Не в сети
Профиль  
 Добавлено: 2011-10-29 17:43 (спустя 23 минуты)
Модератор релиз-группы
Аватара пользователя
Стаж: 9 лет 1 месяц
Возраст: 97
Сообщений: 11660
Спасибок: 6533
Лайков: 269
простите откуда ?
_________________
Изображение
Не в сети
Профиль  
 Добавлено: 2011-10-31 23:39 (спустя 2 дня 5 часов)
Аватара пользователя
Стаж: 7 лет 2 месяца
Сообщений: 333
Спасибок: 989
Лайков: 9
С рутрекера
Не в сети
Профиль  
Начать новую темуОтветить на тему  [ Сообщений: 4 ] 
Вы не можете начинать темы
Вы не можете отвечать на сообщения
Вы не можете редактировать свои сообщения
Вы не можете удалять свои сообщения