Правила форума

  • В этом разделе создание новых тем Запрещено.
  • Для создания новых тем пользуйтесь Корневым разделом DVD и HD фильмы.
Начать новую темуОтветить на тему  [ Сообщений: 4 ] 
Торрент файл
Размер: 7.94 GB • Зарегистрирован: 3 года 6 месяцев • Статус: Проверено
Скачан: 271 раз • Желающих скачать: 0 • Поблагодарили: 77 раз
 Раздают: 0  |  0 KB/s  ]   Качают: 0  |  0 KB/s  ] 
 Полного источника не было 9 часов 
Сообщения
 Добавлено: 2013-05-22 12:52
Аватара пользователя
Стаж: 9 лет 1 месяц
Сообщений: 8018
Спасибок: 122267
Лайков: 1194
Таймлесс. Рубиновая книга / Rubinrot

«Любовь будет вечной, если ты - повелитель времени»

Изображение


Год выпуска: 2013
Страна: Изображение Германия
Жанр: фантастика, фэнтези, приключения
Продолжительность: 02:01:11
Перевод: Профессиональный (полное дублирование) [Лицензия]


Режиссер: Феликс Фуксштайнер
Сценарий: Катарина Шёде, Керстин Гир
Продюсер: Том Блинингер, Феликс Фуксштайнер, Роберт Марсиньяк
Оператор: Соня Ром
Композитор: Филипп Ф. Кёльмель

В ролях: Мария Эрих, Янис Нивёнер, Вероника Феррес, Уве Кокиш, Катарина Тальбах, Флориан Бартоломай, Лаура Берлин, Анна Бётхер, Сибулле Каноника, Джастин Дель Корте

Описание: Живущая в Лондоне шестнадцатилетняя Гвендолин Шеферд случайно узнает, что обладает уникальным геном путешественника во времени, который унаследовала от прапрабабушки. Теперь девушка может ежедневно переноситься в прошлое, и с каждым днем загадок становится все больше. Что такое «Тайна Двенадцати»? Кто охотится на путешественников во времени в прошлом? И почему все вокруг думают, что она обладает какой-то «магией ворона»?

Изображение Изображение

Релиз группы: Изображение Раздача группы: Изображение

Качество: BDRip (1080p)
Формат: Matroska
Видео: MPEG-4 AVC, 8111 Кбит/с, 1920x804, 24.000 кадр/c
Аудио №1: Русский (AC3, 48,0 КГц, 6 ch, 640 Кбит/c)
Аудио №2: Немецкий (AC3, 48,0 КГц, 6 ch, 640 Кбит/c)

MediaInfo
Общее
Уникальный идентификатор : 199582253929195435721830112376346101138 (0x962624D80299CB86B22E32B76947C592)
Полное имя : C:\Фильмы\Tajmless.Rubinovaja.kniga.2013.BDRip.(1080p).R.G.Daredevil.mkv
Формат : Matroska
Версия формата : Version 2
Размер файла : 7,94 Гбайт
Продолжительность : 2 ч. 1 м.
Общий поток : 9384 Кбит/сек
Название фильма : Таймплесс. Рубиновая книга (MediaClub-kaspr)
Дата кодирования : UTC 2013-05-21 15:00:58
Программа кодирования : mkvmerge v5.7.0 ('The Whirlwind') built on Aug 7 2012 14:11:40
Библиотека кодирования : libebml v1.2.3 + libmatroska v1.3.0

Видео
Идентификатор : 1
Формат : AVC
Формат/Информация : Advanced Video Codec
Профиль формата : High@L4.1
Параметр CABAC формата : Да
Параметр ReFrames формата : 5 кадров
Идентификатор кодека : V_MPEG4/ISO/AVC
Продолжительность : 2 ч. 1 м.
Битрейт : 8111 Кбит/сек
Ширина : 1920 пикселей
Высота : 804 пикселя
Соотношение сторон : 2,40:1
Режим частоты кадров : Постоянный
Частота кадров : 24,000 кадра/сек
Цветовое пространство : YUV
Субдискретизация насыщенности : 4:2:0
Битовая глубина : 8 бит
Тип развёртки : Прогрессивная
Бит/(Пиксели*Кадры) : 0.219
Размер потока : 6,70 Гбайт (84%)
Заголовок : Таймплесс. Рубиновая книга (MediaClub-kaspr)
Библиотека кодирования : x264 core 130 r2273 b3065e6
Настройки программы : cabac=1 / ref=5 / deblock=1:-3:-3 / analyse=0x3:0x133 / me=umh / subme=11 / psy=1 / psy_rd=1.00:0.10 / mixed_ref=1 / me_range=32 / chroma_me=1 / trellis=2 / 8x8dct=1 / cqm=0 / deadzone=21,11 / fast_pskip=0 / chroma_qp_offset=-3 / threads=12 / lookahead_threads=1 / sliced_threads=0 / nr=0 / decimate=0 / interlaced=0 / bluray_compat=0 / constrained_intra=0 / bframes=6 / b_pyramid=2 / b_adapt=2 / b_bias=0 / direct=3 / weightb=1 / open_gop=0 / weightp=2 / keyint=240 / keyint_min=22 / scenecut=40 / intra_refresh=0 / rc=2pass / mbtree=0 / bitrate=8111 / ratetol=1.0 / qcomp=0.60 / qpmin=0 / qpmax=69 / qpstep=4 / cplxblur=20.0 / qblur=0.5 / ip_ratio=1.40 / pb_ratio=1.30 / aq=1:1.00
Default : Да
Forced : Нет

Аудио #1
Идентификатор : 2
Формат : AC-3
Формат/Информация : Audio Coding 3
Расширение режима : CM (complete main)
Параметр Endianness формата : Big
Идентификатор кодека : A_AC3
Продолжительность : 2 ч. 1 м.
Вид битрейта : Постоянный
Битрейт : 640 Кбит/сек
Каналы : 6 каналов
Расположение каналов : Front: L C R, Side: L R, LFE
Частота : 48,0 КГц
Битовая глубина : 16 бит
Метод сжатия : С потерями
Размер потока : 555 Мбайт (7%)
Заголовок : Дубляж
Язык : Russian
Default : Да
Forced : Да

Аудио #2
Идентификатор : 3
Формат : AC-3
Формат/Информация : Audio Coding 3
Расширение режима : CM (complete main)
Параметр Endianness формата : Big
Идентификатор кодека : A_AC3
Продолжительность : 2 ч. 1 м.
Вид битрейта : Постоянный
Битрейт : 640 Кбит/сек
Каналы : 6 каналов
Расположение каналов : Front: L C R, Side: L R, LFE
Частота : 48,0 КГц
Битовая глубина : 16 бит
Метод сжатия : С потерями
Размер потока : 555 Мбайт (7%)
Заголовок : Оригинал
Язык : German
Default : Нет
Forced : Нет

Текст
Идентификатор : 4
Формат : UTF-8
Идентификатор кодека : S_TEXT/UTF8
Идентификатор кодека/Информация : UTF-8 Plain Text
Язык : Russian
Default : Нет
Forced : Нет

Меню
00:00:00.000 : en:Chapter 01
00:10:19.041 : en:Chapter 02
00:21:18.500 : en:Chapter 03
00:29:59.958 : en:Chapter 04
00:41:16.041 : en:Chapter 05
00:50:28.416 : en:Chapter 06
01:01:38.291 : en:Chapter 07
01:11:21.083 : en:Chapter 08
01:21:45.958 : en:Chapter 09
01:30:01.125 : en:Chapter 10
01:40:53.541 : en:Chapter 11
01:50:11.291 : en:Chapter 12
Свернуть
Знаете ли вы, что...
Фильм снят по мотивам романа Керстин Гир «Таймлесс. Рубиновая книга» (Rubinrot, 2009).
Свернуть
Скриншоты
Изображение
Изображение
Изображение
Свернуть
Не в сети
Профиль  
 Добавлено: 2013-05-25 22:07 (спустя 3 дня)
Аватара пользователя
Стаж: 8 лет 9 месяцев
Сообщений: 1170
Спасибок: 1294
Лайков: 7
и как?
Не в сети
Профиль  
 Добавлено: 2013-05-30 08:36 (спустя 4 дня)
Стаж: 5 лет 5 месяцев
Сообщений: 3
ну такая муть.....
Не в сети
Профиль  
 Добавлено: 2013-06-14 09:58 (спустя 15 дней)
Стаж: 5 лет 3 месяца
Сообщений: 151
Лайков: 2
Отстоище!!!!
Не в сети
Профиль  
Начать новую темуОтветить на тему  [ Сообщений: 4 ] 
Вы не можете начинать темы
Вы не можете отвечать на сообщения
Вы не можете редактировать свои сообщения
Вы не можете удалять свои сообщения