Правила форума

  • В этом разделе создание новых тем Запрещено.
  • Для создания новых тем пользуйтесь Корневым разделом DVD и HD фильмы.
Начать новую темуОтветить на тему  [ Сообщений: 8 ] 
Торрент файл
Размер: 19.7 GB • Зарегистрирован: 3 года 7 месяцев • Статус: Проверено
Скачан: 117 раз • Желающих скачать: 0 • Поблагодарили: 38 раз
 Раздают: 0  |  0 KB/s  ]   Качают: 0  |  0 KB/s  ] 
 Полного источника не было 2 года 8 месяцев 
Сообщения
 Добавлено: 2013-04-19 11:15
Аватара пользователя
Стаж: 5 лет 4 месяца
Возраст: 26
Сообщений: 1658
Спасибок: 45809
Лайков: 69
Тайна перевала Дятлова


«Тайна будет раскрыта.»


Изображение
Год выпуска: 2013
Страна: ИзображениеИзображение
Жанр: Ужасы, триллер, реальные события
Продолжительность: 01:40:24
Перевод: Профессиональный (многоголосый) (Лицензия)

Режиссёр: Ренни Харлин

Сценарий: Энди Бриггс, Викрам Вит

Продюсер: Александр Роднянский, Сергей Мелькумов, Киа Джэм, Сергей Беспалов, Борис Тетерев

Оператор: Денис Аларкон Рамирес

Композитор: Юрий Потеенко

Xудожник: Федор Савельев, Виктория Тарусова, Варя Авдюшко

В ролях: Холли Госс, Ричард Рейд, Мэтт Стокоу, Холли Госс, Райан Хоули, Люк Олбрайт, Анастасия Бурдина, Николай Бутенин, Валерий Федорович, Нелли Нилсен
.


Описание: Сюжет фильма основан на реальных событиях, произошедших в 1959-м году. В 2012-м году группа американских студентов, получив грант, отправляется на уральские горы, следуя тем же маршрутом, что и группа Дятлова, чтобы попытаться восстановить картину и разгадать причину таинственной, мистической и до сих пор не разгаданной гибели советских лыжников.


Изображение



Сборы в России: $4 951 853

Мировая премьера:28 февраля 2013.
Российский прокат:28 февраля 2013, «Двадцатый Век Фокс СНГ», «A Company»

Релиз на DVD:30 апреля 2013, «CP Дистрибуция».
Релиз на Blu-Ray:30 апреля 2013, «CP Дистрибуция».

Качество: Blu-Ray Remux (1080p)
Формат: MKV
Видео: MPEG-2, 26.8 Mбит/с, 1920х1080, 24.000 кадр/с
Аудио: Русский (DTS, 6 ch, 755 Кбит/c)



MediaInfo
Общее
Уникальный идентификатор : 212169613603383415587365734477665911271 (0x9F9E61972931E316BC0C2706260FC1E7)
Полное имя : D:\Фильмы и сериалы\Taina.perevala.Dyatlova.2013.Remux.mkv
Формат : Matroska
Версия формата : Version 2
Размер файла : 19,7 Гбайт
Продолжительность : 1 ч. 40 м.
Режим общего битрейта : Переменный
Общий поток : 28,1 Мбит/сек
Дата кодирования : UTC 2013-04-18 15:09:45
Программа кодирования : mkvmerge v5.7.0 ('The Whirlwind') built on Aug 7 2012 14:11:40
Библиотека кодирования : libebml v1.2.3 + libmatroska v1.3.0

Видео
Идентификатор : 1
Формат : MPEG Video
Версия формата : Version 2
Профиль формата : Main@High
Параметр BVOP формата : Нет
Параметр матрицы формата : По умолчанию
Идентификатор кодека : V_MPEG2
Идентификатор кодека/Информация : MPEG 1 or 2 Video
Продолжительность : 1 ч. 40 м.
Вид битрейта : Переменный
Битрейт : 26,8 Мбит/сек
Максимальный битрейт : 32,0 Мбит/сек
Ширина : 1920 пикселей
Высота : 1080 пикселей
Соотношение сторон : 16:9
Режим частоты кадров : Постоянный
Частота кадров : 24,000 кадра/сек
Цветовое пространство : YUV
Субдискретизация насыщенности : 4:2:0
Битовая глубина : 8 бит
Метод сжатия : С потерями
Бит/(Пиксели*Кадры) : 0.538
TimeCode_FirstFrame : 00:00:00:00
TimeCode_Source : Group of pictures header
Размер потока : 18,8 Гбайт (95%)
Default : Да
Forced : Нет

Аудио
Идентификатор : 2
Формат : DTS
Формат/Информация : Digital Theater Systems
Режим : 16
Параметр Endianness формата : Big
Идентификатор кодека : A_DTS
Продолжительность : 1 ч. 40 м.
Вид битрейта : Постоянный
Битрейт : 755 Кбит/сек
Каналы : 6 каналов
Расположение каналов : Front: L C R, Side: L R, LFE
Частота : 48,0 КГц
Битовая глубина : 24 бит
Метод сжатия : С потерями
Размер потока : 542 Мбайт (3%)
Язык : Russian
Default : Да
Forced : Нет

Меню
00:00:00.000 : en:Chapter 01
00:00:00.333 : en:Chapter 02
00:01:39.166 : en:Chapter 03
00:16:14.416 : en:Chapter 04
00:29:49.291 : en:Chapter 05
00:41:49.750 : en:Chapter 06
00:54:19.625 : en:Chapter 07
01:07:26.458 : en:Chapter 08
01:19:31.166 : en:Chapter 09
01:30:32.750 : en:Chapter 10



Свернуть

Трейлер
Свернуть

Скриншоты
Изображение
Изображение
Изображение
Свернуть
_________________
S.T.A.L.K.E.R.: Lost Alpha
Не в сети
Профиль  
 Добавлено: 2013-04-19 14:08 (спустя 2 часа 53 минуты)
Аватара пользователя
Стаж: 6 лет 3 месяца
Возраст: 23
Сообщений: 352
Лайков: 4
ну зачем спойлерить :'( :'(
_________________

Изображение
Не в сети
Профиль  
 Добавлено: 2013-04-19 16:04 (спустя 1 час 56 минут)
Модератор релиз-группы
Аватара пользователя
Стаж: 6 лет 9 месяцев
Возраст: 25
Сообщений: 1230
Спасибок: 8209
Лайков: 10
а дубляжа не будет?
_________________
Изображение 20 Mbps день; 40 Mbps ночь.
Изображение 20 Mbps день; 40 Mbps ночь.
Не в сети
Профиль  
 Добавлено: 2013-04-20 10:03 (спустя 17 часов)
Аватара пользователя
Стаж: 5 лет 4 месяца
Возраст: 26
Сообщений: 1658
Спасибок: 45809
Лайков: 69
sukre
Нет наверно :)
_________________
S.T.A.L.K.E.R.: Lost Alpha
Не в сети
Профиль  
 Добавлено: 2013-04-30 17:15 (спустя 10 дней)
Аватара пользователя
Стаж: 8 лет 3 месяца
Сообщений: 65
Спасибок: 253
Достоинства:

1. Отсутствие «виртуальной реальности» которой любит злоупотреблять «Голливуд» — иначе говоря если A>B, то оно таким останется до конца фильма.

2. Скорее к 1-му достоинству, но выделю отдельно — никакого американского супермэнства и мании величия.

3. Никакой русофобии.

4. Сценарий и съёмка красивы и гармоничны для фантастического фильма.(реалистичное начало, неожиданная и загадочная концовка).

В фильме пересекаются жанры научной фантастики, мистики и драмы. Причём сделано это очень гармонично — показывая(открывая) мистический феномен как потенциальный объект научных исследований пусть не в ближайшем будущем, но может через 100-200 лет:).

5. Отсутствие бутафории при таком ограниченном бюджете.

Недостатки:

1. Назвал бы ограниченность бюджета, но на том что отснято это не заметно.

Как любитель научной фантастики скажу — прекрасный фильм — 9 из 10.
Не в сети
Профиль  
 Добавлено: 2013-05-01 14:52 (спустя 21 час)
Аватара пользователя
Стаж: 4 года 11 месяцев
Сообщений: 67
нормальный фильм
Не в сети
Профиль  
 Добавлено: 2013-05-01 15:35 (спустя 42 минуты)
Аватара пользователя
Стаж: 4 года
Возраст: 24
Сообщений: 6
я конечно разочарован((такая лажа((
Не в сети
Профиль  
 Добавлено: 2013-05-02 03:09 (спустя 11 часов)
Аватара пользователя
Стаж: 8 лет 3 месяца
Сообщений: 65
Спасибок: 253
originalgaz
Есть плохие фильмы, которые вообще никому не нравятся, а есть фильмы рассчитанные на конкретную аудиторию. Просто это не твой жанр и тем не менее фильм хорош. Вообще для фильмов пыщ-пыщ оло-ло("Железный человек" и ему подобные) давно пора придумать отдельный жанр чтобы не разочаровывать и не путать людей :) ибо это не относится к научной фантастике, по кр мере в том виде в котором экранизовали.
Не в сети
Профиль  
Начать новую темуОтветить на тему  [ Сообщений: 8 ] 
Вы не можете начинать темы
Вы не можете отвечать на сообщения
Вы не можете редактировать свои сообщения
Вы не можете удалять свои сообщения