Правила форума

  • В этом разделе создание новых тем Запрещено.
  • Для создания новых тем пользуйтесь Корневым разделом DVD и HD фильмы.
Начать новую темуОтветить на тему  [ Сообщений: 12 ] 
Торрент файл
Размер: 10.41 GB • Зарегистрирован: 3 года 7 месяцев • Статус: Проверено
Скачан: 467 раз • Желающих скачать: 0 • Поблагодарили: 108 раз
 Раздают: 0  |  0 KB/s  ]   Качают: 0  |  0 KB/s  ] 
 Полного источника не было 5 месяцев 8 дней 
Сообщения
 Добавлено: 2013-04-18 22:01
Аватара пользователя
Стаж: 9 лет 1 месяц
Сообщений: 7929
Спасибок: 122130
Лайков: 1191
Тайна перевала Дятлова

Изображение


Год выпуска: 2013
Страна: Изображение Россия Изображение США
Жанр: триллер, ужасы, фантастика
Продолжительность: 01:40:24
Перевод: Профессиональный (многоголосый, закадровый) [Лицензия]


Режиссёр: Ренни Харлин
Сценарист: Энди Бриггс, Викрам Вит
Продюсер: Александр Роднянский, Сергей Мелькумов, Киа Джэм
Оператор: Денис Аларкон Рамирес
Композитор: Юрий Потеенко

В ролях: Холли Госс, Мэтт Стокоу, Люк Олбрайт, Райан Хоули, Джемма Аткинсон, Николай Бутенин, Ричард Рейд, Анастасия Бурдина, Валерия Федорович, Нелли Нилсен

Описание: Сюжет фильма основан на реальных событиях, произошедших в 1959-м году. В 2012-м году группа американских студентов, получив грант, отправляется на уральские горы, следуя тем же маршрутом, что и группа Дятлова, чтобы попытаться восстановить картину и разгадать причину таинственной, мистической и до сих пор не разгаданной гибели советских лыжников.

Изображение Изображение

Релиз группы: Изображение Раздача группы: Изображение

Качество: BDRip (1080p)
Формат: Matroska
Видео: MPEG-4 AVC, 13,9 Мбит/с, 1920x1080
Аудио: Русский (AC3, 48,0 КГц, 6 ch, 640 Кбит/c)

MediaInfo
Общее
Уникальный идентификатор : 200992553345400561310445393559154970986 (0x9735C1F9321D8733B94966E31665D16A)
Полное имя : C:\Фильмы\Tajna.perevala.Djatlova.2013.P.BDRip.1080p.R.G.Daredevil.mkv
Формат : Matroska
Версия формата : Version 2
Размер файла : 10,4 Гбайт
Продолжительность : 1 ч. 40 м.
Общий поток : 14,8 Мбит/сек
Дата кодирования : UTC 2013-04-18 16:13:31
Программа кодирования : mkvmerge v5.2.0 ('I can't explain') built on Dec 18 2011 18:12:03
Библиотека кодирования : libebml v1.2.3 + libmatroska v1.3.0

Видео
Идентификатор : 1
Формат : AVC
Формат/Информация : Advanced Video Codec
Профиль формата : High@L4.1
Параметр CABAC формата : Да
Параметр ReFrames формата : 4 кадра
Идентификатор кодека : V_MPEG4/ISO/AVC
Продолжительность : 1 ч. 40 м.
Битрейт : 13,9 Мбит/сек
Ширина : 1920 пикселей
Высота : 1080 пикселей
Соотношение сторон : 16:9
Режим частоты кадров : Постоянный
Частота кадров : 24,000 кадра/сек
Цветовое пространство : YUV
Субдискретизация насыщенности : 4:2:0
Битовая глубина : 8 бит
Тип развёртки : Прогрессивная
Бит/(Пиксели*Кадры) : 0.279
Размер потока : 9,76 Гбайт (94%)
Заголовок : Tajna perevala Djatlova 2013 1080p BluRay DTS x264-IRONCLUB
Библиотека кодирования : x264 core 130 r2273 b3065e6
Настройки программы : cabac=1 / ref=4 / deblock=1:-3:-3 / analyse=0x3:0x113 / me=umh / subme=11 / psy=1 / psy_rd=1.10:0.00 / mixed_ref=1 / me_range=48 / chroma_me=1 / trellis=2 / 8x8dct=1 / cqm=0 / deadzone=21,11 / fast_pskip=0 / chroma_qp_offset=-2 / threads=12 / lookahead_threads=2 / sliced_threads=0 / nr=0 / decimate=1 / interlaced=0 / bluray_compat=0 / constrained_intra=0 / bframes=9 / b_pyramid=2 / b_adapt=2 / b_bias=0 / direct=3 / weightb=1 / open_gop=0 / weightp=2 / keyint=250 / keyint_min=24 / scenecut=40 / intra_refresh=0 / rc_lookahead=192 / rc=crf / mbtree=1 / crf=18.0 / qcomp=0.70 / qpmin=0 / qpmax=69 / qpstep=4 / vbv_maxrate=50000 / vbv_bufsize=62500 / crf_max=0.0 / nal_hrd=none / ip_ratio=1.30 / aq=1:0.80
Язык : English
Default : Да
Forced : Да
Основные цвета : BT.709

Аудио
Идентификатор : 2
Формат : AC-3
Формат/Информация : Audio Coding 3
Расширение режима : CM (complete main)
Параметр Endianness формата : Big
Идентификатор кодека : A_AC3
Продолжительность : 1 ч. 40 м.
Вид битрейта : Постоянный
Битрейт : 640 Кбит/сек
Каналы : 6 каналов
Расположение каналов : Front: L C R, Side: L R, LFE
Частота : 48,0 КГц
Битовая глубина : 16 бит
Метод сжатия : С потерями
Размер потока : 460 Мбайт (4%)
Заголовок : DD 5.1 @ 640 kbps - MVO, BD RUS
Язык : Russian
Default : Да
Forced : Да

Меню
00:00:00.000 : en:00:00:00.000
00:00:00.333 : en:00:00:00.333
00:01:39.166 : en:00:01:39.166
00:16:14.416 : en:00:16:14.416
00:29:49.291 : en:00:29:49.291
00:41:49.750 : en:00:41:49.750
00:54:19.625 : en:00:54:19.625
01:07:26.458 : en:01:07:26.458
01:19:31.166 : en:01:19:31.166
01:30:32.750 : en:01:30:32.750
Свернуть
Знаете ли вы, что...
23 января 1959 года группа из девяти опытных лыжных туристов под руководством студента политехнического института Игоря Дятлова отправилась в лыжный поход по горам. Спустя неделю, 1 февраля, группа остановилась на склоне горы Холатчахль (в переводе с мансийского — Гора Мертвецов), неподалеку от безымянного перевала, получившего впоследствии имя Дятлова. К 12 февраля они должны были вернуться в цивилизацию и выйти на связь, но в конечной точке маршрута так и не объявились.

Официальное следствие предположило, что трагедия произошла из-за схода лавины. Позднее появилось несколько версий случившегося — от криминальных и конспирологических до мистических и паранормальных. Обвиняли диких зверей, беглых заключенных из окрестных колоний, солдат, принявших туристов за беглых заключенных, местных жителей из племени манси, для которых Холатчахль имеет ритуальное значение, военных, якобы испытывавших в отдаленной местности новое секретное оружие, агентов иностранной разведки и даже космических пришельцев.

О гибели группы Дятлова было написано несколько исследований и снято несколько документальных фильмов. Однако до сих пор никаких внятных и вразумительных объяснений трагедии полувековой давности на сегодняшний день нет.

Свернуть
Скриншоты
Изображение
Изображение
Изображение
Изображение
Свернуть
Не в сети
Профиль  
 Добавлено: 2013-04-19 07:11 (спустя 9 часов)
Аватара пользователя
Стаж: 8 лет
Сообщений: 1390
Спасибок: 39
Лайков: 63
а желтым? :bra_vo:
Не в сети
Профиль  
 Добавлено: 2013-04-19 07:34 (спустя 23 минуты)
Аватара пользователя
Стаж: 7 лет
Сообщений: 107
Лайков: 1
как фильм ? есть смысл качать?
Не в сети
Профиль  
 Добавлено: 2013-04-19 21:26 (спустя 13 часов)
Аватара пользователя
Стаж: 3 года 10 месяцев
Возраст: 22
Сообщений: 5
На раздаче сидят 28 человек, а скорости нет! Это что шутка такая?
_________________
I'm Free....
Не в сети
Профиль  
 Добавлено: 2013-04-20 17:39 (спустя 20 часов)
Стаж: 6 лет 9 месяцев
Сообщений: 13
Дайте скорости плиз!!!
Не в сети
Профиль  
 Добавлено: 2013-04-25 21:31 (спустя 5 дней)
Аватара пользователя
Стаж: 8 лет
Сообщений: 140
Спасибок: 51
заценим
_________________
Изображение 6 мB/s Изображение 600 kB/s
Изображение
Не в сети
Профиль  
 Добавлено: 2013-04-27 07:47 (спустя 1 день 10 часов)
Стаж: 6 лет 8 месяцев
Сообщений: 19
Люди не тратте свое время зря, фильм полная хрень. Не повторяйте мою ошибку.
Не в сети
Профиль  
 Добавлено: 2013-05-07 17:03 (спустя 10 дней)
Аватара пользователя
Стаж: 8 лет 11 месяцев
Сообщений: 515
Спасибок: 39
Лайков: 49

Алан:

Люди не тратте свое время зря, фильм полная хрень. Не повторяйте мою ошибку.

Твою ошибку повторило уже 357 человек, и это только на этой раздаче.
Не в сети
Профиль  
 Добавлено: 2013-05-08 00:06 (спустя 7 часов)
Аватара пользователя
Стаж: 7 лет 4 месяца
Возраст: 34
Сообщений: 241
Спасибок: 1
Лайков: 2
Фигня какаето . :za_da_va_la:
Не в сети
Профиль  
 Добавлено: 2013-05-14 05:11 (спустя 6 дней)
Стаж: 6 лет 7 месяцев
Сообщений: 31
дятел повел дятлов .
Не в сети
Профиль  
 Добавлено: 2013-05-14 16:08 (спустя 10 часов)
Кинокомментатор
Аватара пользователя
Стаж: 8 лет 6 месяцев
Возраст: 39
Сообщений: 1841
Спасибок: 130
Лайков: 4
Главная ошибка всех американских (буржуйских) режиссёров заключается в том, что события произошедшие в 18-19хх годах переносят в наше время да ещё и перекладывают на самих американцев. Я не буду сейчас распыляться и пересказывать сюжет, ясно, что режиссёр показал свою версию тогдашней гибели студентов и в свою очередь отобразил случившееся в наше время. Мне лично эта версия показалась самой что нинаесть дурацкой! Появление в фильме военной базы навязчиво заставляют вспоминать о "холодной войне" да ещё в современных реалиях! В самом деле сколько можно? Хотя бы НЛО приплёл. Фильм показывается в духе "Ведьмы из Блэр", документально-игрового кино. Похожий стиль наблюдается в документальном фильме ВВС "Конец света" который демонстрировался по РенТВ и оказавшийся на порядок лучше всяких "Дятловых". Телепортация до сих пор не изучена, эксперименты находились (-тся) в зачаточном состоянии, иначе любая страна давно бы воспользовалась своим открытием и далеко не в мирных целях. Поэтому фильм посмотреть, стереть и забыть как будто бы его и не было! Смотреть на туповатых американских студентов второй или в третий раз совсем не хочется :po_zor:

P.S. Лично мне импонирует правдоподобная версия о техногенной катастрофе связанной с радиацией, например испытание ядерного оружия /ракеты/. И уж никак не соглашусь с версией о сходе лавины - выглядит несерьёзно :ne_ne:
Не в сети
Профиль  
 Добавлено: 2013-08-03 11:03 (спустя 2 месяца 19 дней)
Стаж: 6 лет 8 месяцев
Сообщений: 33
Спасибок: 3
Весь фильм была какая-то интрига. Интересно было, что там за "тайна". Но концовка получилась смазанной, неправдоподобной и испортила впечатление о фильме. В целом, посмотреть можно, но только на один раз.
Не в сети
Профиль  
Начать новую темуОтветить на тему  [ Сообщений: 12 ] 
Вы не можете начинать темы
Вы не можете отвечать на сообщения
Вы не можете редактировать свои сообщения
Вы не можете удалять свои сообщения