Правила форума

  • В этом разделе создание новых тем Запрещено.
  • Для создания новых тем пользуйтесь Корневым разделом DVD и HD фильмы.
Начать новую темуОтветить на тему  [ Сообщений: 2 ] 
Торрент файл
Размер: 7.77 GB • Зарегистрирован: 4 года 2 месяца • Статус: Проверено
Скачан: 42 раза • Желающих скачать: 0 • Поблагодарили: 13 раз
 Раздают: 0  |  0 KB/s  ]   Качают: 0  |  0 KB/s  ] 
 Полного источника не было 3 года 2 месяца 
Сообщения
 Добавлено: 2012-10-05 12:14
Модератор релиз-группы
Аватара пользователя
Стаж: 9 лет 1 месяц
Возраст: 97
Сообщений: 11659
Спасибок: 6532
Лайков: 269
Тайник / Stash House

«Для каждого злодея - свой день»

Изображение

Год выпуска: 2012
Страна: США
Жанр: триллер
Продолжительность: 01:39:29
Перевод: Профессиональный (многоголосый, закадровый) [лицензия]

Режиссер: Эдуардо Родригез

В ролях: Дольф Лундгрен, Шон Фэрис, Бриана Эвиган, Джон Уэртас, Алишиа Ош, Лэнс Э. Николс, Калеб Микаэльсон, Лоуренс Тернер, Хавьер Караскуилло, Джеймс Роулингс, Шон Бойд

Описание: Молодая пара Дэвид и Эмма Нэш переезжают в недавно приобретённый дом. Однако, радость от новоселья продолжается недолго, а желание супругов видеть в доме воплощение своих мечтаний и уютную обитель совсем скоро сменяется настоящим кошмаром.
Дэвид и Эмма случайно обнаруживают в одной из стен своего жилища огромный тайник с наркотиками. Если бы они знали, что столь неожиданное открытие было лишь началом леденящих кровь событий, - как только перепуганные молодые люди попытались сообщить о своей находке в полицию, к ним пожаловал «милый сосед» Эндрю Спектор с ружьём наперевес. Уж он-то в курсе тёмного прошлого этого домика, который, как оказалось, некогда был обителью крупнейшего наркоторговца. И теперь за содержимое его тайника насмерть борются бывшие подельники, мафиози и прочие головорезы.
Охота за наркотиками, кровавые разборки матёрых преступников, а также ежесекундное предчувствие неминуемой гибели - едва ли семья Нэш могла этого ожидать. Для того, чтобы выжить, молодым людям придётся собрать всю свою волю в кулак, и проявить небывалую находчивость, чтобы
Изображение
Качество: BDRip 1080p
Видео: AVC, 1920x1080, 23.976 fps, ~ 9 487 Кбит/сек
Аудио 1 : Russian: АС3, 48000 Hz, 2 каналов, 192 kbit/s
Аудио 2 : English: DTS, 48000 Hz, 6 каналов, 1510 kbit/s
скриншоты
Изображение

Изображение

Изображение
Свернуть
Mi
Format : Matroska
Format version : Version 2
File size : 7.77 GiB
Duration : 1h 39mn
Overall bit rate : 11.2 Mbps
Encoded date : UTC 2012-10-05 03:13:31
Writing application : mkvmerge v5.8.0 ('No Sleep / Pillow') built on Sep 2 2012 15:37:04
Writing library : libebml v1.2.3 + libmatroska v1.3.0

Video
ID : 1
Format : AVC
Format/Info : Advanced Video Codec
Format profile : High@L4.1
Format settings, CABAC : Yes
Format settings, ReFrames : 4 frames
Muxing mode : Header stripping
Codec ID : V_MPEG4/ISO/AVC
Duration : 1h 39mn
Bit rate : 9 487 Kbps
Width : 1 920 pixels
Height : 1 080 pixels
Display aspect ratio : 16:9
Frame rate : 23.976 fps
Color space : YUV
Chroma subsampling : 4:2:0
Bit depth : 8 bits
Scan type : Progressive
Bits/(Pixel*Frame) : 0.191
Stream size : 6.44 GiB (83%)
Writing library : x264 core 125 r2208 d9d2288
Encoding settings : cabac=1 / ref=4 / deblock=1:0:0 / analyse=0x3:0x133 / me=umh / subme=7 / psy=1 / psy_rd=1.00:0.00 / mixed_ref=1 / me_range=16 / chroma_me=1 / trellis=1 / 8x8dct=1 / cqm=0 / deadzone=21,11 / fast_pskip=0 / chroma_qp_offset=-2 / threads=12 / lookahead_threads=2 / sliced_threads=0 / nr=0 / decimate=1 / interlaced=0 / bluray_compat=0 / constrained_intra=0 / bframes=3 / b_pyramid=2 / b_adapt=2 / b_bias=0 / direct=3 / weightb=1 / open_gop=0 / weightp=2 / keyint=250 / keyint_min=23 / scenecut=40 / intra_refresh=0 / rc_lookahead=50 / rc=2pass / mbtree=1 / bitrate=9487 / ratetol=1.0 / qcomp=0.60 / qpmin=0 / qpmax=69 / qpstep=4 / cplxblur=20.0 / qblur=0.5 / ip_ratio=1.40 / aq=1:1.00
Language : English
Default : Yes
Forced : No

Audio #1
ID : 2
Format : AC-3
Format/Info : Audio Coding 3
Mode extension : CM (complete main)
Format settings, Endianness : Big
Muxing mode : Header stripping
Codec ID : A_AC3
Duration : 1h 39mn
Bit rate mode : Constant
Bit rate : 192 Kbps
Channel(s) : 2 channels
Channel positions : Front: L R
Sampling rate : 48.0 KHz
Bit depth : 16 bits
Compression mode : Lossy
Stream size : 137 MiB (2%)
Language : Russian
Default : Yes
Forced : No

Audio #2
ID : 3
Format : DTS
Format/Info : Digital Theater Systems
Muxing mode : Header stripping
Codec ID : A_DTS
Duration : 1h 39mn
Bit rate mode : Constant
Bit rate : 1 510 Kbps
Channel(s) : 6 channels
Channel positions : Front: L C R, Side: L R, LFE
Sampling rate : 48.0 KHz
Bit depth : 24 bits
Compression mode : Lossy
Stream size : 1.05 GiB (13%)
Language : English
Default : No
Forced : No

Свернуть
_________________
Изображение
Не в сети
Профиль  
 Добавлено: 2012-10-17 23:24 (спустя 12 дней)
Стаж: 8 лет 9 месяцев
Сообщений: 1
gtrrh
Не в сети
Профиль  
Начать новую темуОтветить на тему  [ Сообщений: 2 ] 
Вы не можете начинать темы
Вы не можете отвечать на сообщения
Вы не можете редактировать свои сообщения
Вы не можете удалять свои сообщения