Правила форума

  • В этом разделе создание новых тем Запрещено.
  • Для создания новых тем пользуйтесь Корневым разделом DVD и HD фильмы.
Начать новую темуОтветить на тему  [ 1 сообщение ] 
Торрент файл
Размер: 8.53 GB • Зарегистрирован: 1 год 11 месяцев • Статус: Проверено
Скачан: 49 раз • Желающих скачать: 0 • Поблагодарили: 12 раз
 Раздают: 0  |  0 KB/s  ]   Качают: 0  |  0 KB/s  ] 
 Полного источника не было 1 день 3 часа 
Сообщения
 Добавлено: 2014-12-07 02:13
Аватара пользователя
Стаж: 9 лет 1 месяц
Сообщений: 7910
Спасибок: 122091
Лайков: 1190
Техасская резня бензопилой / Texas Chainsaw

«Evil wears many faces»

Изображение


Год выпуска: 2013
Страна: Изображение США
Жанр: ужасы, триллер
Продолжительность: 01:31:57
Субтитры: Русские, английские
Перевод: Профессиональный (полное дублирование) [Лицензия]


Режиссер: Джон Льюсенхоп
Сценарий: Адам Маркус, Дебра Салливан, Керстен Элмс
Продюсер: Карл Маццоконе, Синди Бреннер, Марк Бёрг
Оператор: Анастас Н. Микос
Композитор: Джон Фриззелл

В ролях: Александра Даддарио, Дэн Йеджер, Трей Сонгз, Скотт Иствуд, Таня Рэймонд, Шон Сайпос, Керам Малики-Санчес, Джеймс МакДональд, Том Бэрри, Пол Рэй

Описание: Местный шериф согласился организовать для Джеба Сойера, который и скрывался под Кожаным лицом, честный судебный процесс и предоставить ему адвоката. Однако его намерениям мешает мэр, который ведет за собой толпу людей, жаждущих линчевать кровавого маньяка. Когда ситуация начинает выходить из-под контроля, а горожане принимаются ладить петли для убийцы, кто-то бросает в дом Сойера бутылку с зажигательной смесью. Дом сгорает, а вместе с ним в огне гибнут и все, кто в нем находился, включая самого Джеба и его отца. Разумеется, спустя определенное время убийства с помощью бензопилы начинаются снова. Первое предположение шерифа — Джеб Сойер выжил и решил отомстить. Но он ли это на самом деле? И если нет, то кто?

Изображение Изображение

Раздача группы: Изображение

Качество: BDRip (1080p)
Формат: Matroska
Видео: MPEG-4 AVC, 10.0 Мбит/с, 1920x800
Аудио №1: Русский (DTS, 48,0 КГц, 6 ch, 1510 Кбит/c)
Аудио №2: Английский (DTS, 48,0 КГц, 6 ch, 1510 Кбит/c)

MediaInfo
Общее
Уникальный идентификатор : 218070563955724362635921013837292954189 (0xA40EDCE7BF2846B0827288691C5CE24D)
Полное имя : C:\Фильмы\Tehasskaja.reznja.benzopiloj.2013.D.BDRip.1080p.mkv
Формат : Matroska
Версия формата : Version 2
Размер файла : 8,53 Гбайт
Продолжительность : 1 ч. 31 м.
Общий поток : 13,3 Мбит/сек
Название фильма : UNIONGANG.tv
Дата кодирования : UTC 2014-12-06 21:24:58
Программа кодирования : mkvmerge v7.3.0 ('Nouages') 64bit built on Oct 22 2014 18:53:34
Библиотека кодирования : libebml v1.3.0 + libmatroska v1.4.1

Видео
Идентификатор : 1
Формат : AVC
Формат/Информация : Advanced Video Codec
Профиль формата : High@L4.1
Параметр CABAC формата : Да
Параметр ReFrames формата : 5 кадров
Идентификатор кодека : V_MPEG4/ISO/AVC
Продолжительность : 1 ч. 31 м.
Битрейт : 9999 Кбит/сек
Ширина : 1920 пикселей
Высота : 800 пикселей
Соотношение сторон : 2,40:1
Режим частоты кадров : Постоянный
Частота кадров : 23,976 кадра/сек
Цветовое пространство : YUV
Субдискретизация насыщенности : 4:2:0
Битовая глубина : 8 бит
Тип развёртки : Прогрессивная
Бит/(Пиксели*Кадры) : 0.272
Размер потока : 6,42 Гбайт (75%)
Библиотека кодирования : x264 core 130 r2274+704+40 24c804d tMod+MixAQ [8-bit@4:2:0 X86_64]
Настройки программы : cabac=1 / ref=5 / deblock=1:-3:-3 / analyse=0x3:0x113 / me=umh / subme=11 / psy=1 / fade_compensate=0.00 / psy_rd=1.05:0.00 / mixed_ref=1 / me_range=48 / chroma_me=1 / trellis=2 / 8x8dct=1 / cqm=0 / deadzone=21,11 / fast_pskip=0 / chroma_qp_offset=-2 / threads=36 / lookahead_threads=6 / sliced_threads=0 / nr=0 / decimate=0 / interlaced=0 / bluray_compat=0 / constrained_intra=0 / fgo=0 / bframes=8 / b_pyramid=2 / b_adapt=2 / b_bias=0 / direct=3 / weightb=1 / open_gop=0 / weightp=2 / keyint=240 / keyint_min=24 / scenecut=40 / intra_refresh=0 / rc=crf / mbtree=0 / crf=18.0000 / qcomp=0.72 / qpmin=0 / qpmax=69 / qpstep=4 / ip_ratio=1.25 / pb_ratio=1.20 / aq=4:0.90 / aq-sensitivity=10.00 / aq-ifactor=1.00 / aq-pfactor=1.00 / aq-bfactor=1.00 / aq2=0
Язык : English
Default : Да
Forced : Нет

Аудио #1
Идентификатор : 2
Формат : DTS
Формат/Информация : Digital Theater Systems
Режим : 16
Параметр Endianness формата : Big
Идентификатор кодека : A_DTS
Продолжительность : 1 ч. 31 м.
Вид битрейта : Постоянный
Битрейт : 1509 Кбит/сек
Каналы : 6 каналов
Расположение каналов : Front: L C R, Side: L R, LFE
Частота : 48,0 КГц
Битовая глубина : 16 бит
Метод сжатия : С потерями
Размер потока : 993 Мбайт (11%)
Язык : Russian
Default : Да
Forced : Нет

Аудио #2
Идентификатор : 3
Формат : DTS
Формат/Информация : Digital Theater Systems
Режим : 16
Параметр Endianness формата : Big
Идентификатор кодека : A_DTS
Продолжительность : 1 ч. 31 м.
Вид битрейта : Постоянный
Битрейт : 1509 Кбит/сек
Каналы : 6 каналов
Расположение каналов : Front: L C R, Side: L R, LFE
Частота : 48,0 КГц
Битовая глубина : 24 бит
Метод сжатия : С потерями
Размер потока : 993 Мбайт (11%)
Язык : English
Default : Нет
Forced : Нет

Текст #1
Идентификатор : 4
Формат : UTF-8
Идентификатор кодека : S_TEXT/UTF8
Идентификатор кодека/Информация : UTF-8 Plain Text
Язык : Russian
Default : Нет
Forced : Нет

Текст #2
Идентификатор : 5
Формат : PGS
Режим смешивания : zlib
Идентификатор кодека : S_HDMV/PGS
Идентификатор кодека/Информация : The same subtitle format used on BDs/HD-DVDs
Язык : English
Default : Нет
Forced : Нет

Меню
00:00:00.000 : en:00:00:00.000
00:05:50.767 : en:00:05:50.767
00:13:10.081 : en:00:13:10.081
00:19:32.296 : en:00:19:32.296
00:26:39.223 : en:00:26:39.223
00:31:56.623 : en:00:31:56.623
00:38:02.197 : en:00:38:02.197
00:43:00.536 : en:00:43:00.536
00:47:00.359 : en:00:47:00.359
00:49:55.201 : en:00:49:55.201
00:52:09.418 : en:00:52:09.418
00:56:26.008 : en:00:56:26.008
00:59:24.644 : en:00:59:24.644
01:06:09.674 : en:01:06:09.674
01:13:03.629 : en:01:13:03.629
01:18:13.939 : en:01:18:13.939
Свернуть
Знаете ли вы, что...
В этом фильме, как и в оригинале, первую жертву забили до смерти во время блужданий по дому в одиночестве.

В этом фильме снимались четыре актера из предыдущих частей франшизы, до этого максимально было три человека (в фильме «Техасская резня бензопилой 4: Новое поколение», 1994).

Первоначально выдвигалась идея о новой трилогии. При этом второй фильм являлся бы приквелом к первому. Первый фильм был бы полностью про больницу, второй описывал бы предшествующие события, а третий завершал бы сюжетную линию. Но, побоявшись, что это слишком амбициозный и рискованный проект, продюсеры предпочли следовать исходной истории.

Первый сиквел «Техасской резни бензопилой», снятый без поддержки компании Platinum Dunes.

В 2009 году компания Platinum Dunes объявила о своем отказе продолжать франшизу после выхода картины «Техасская резня бензопилой: Начало». Права на «Техасскую резню бензопилой» были перекуплены студией Lionsgate.

Мэрилин Бёрнс, которая играла Салли Хардести в оригинальном фильме, здесь играет персонажа по имени Верна. Этот фильм и фильм «Обвальщики» (2012) стали ее первым появлением в кино за последние 28 лет (если не считать ее эпизодическую роль в фильме «Техасская резня бензопилой 4: Новое поколение», 1994).

Сцены в горящем доме Сойера в начале фильма снимались в Шривпорте в 40-градусную жару.

Гуннар Хансен играл Кожаное Лицо в фильме «Техасская резня бензопилой» (1974).

Джон Дуган, который сыграл дедушку в фильме «Техасская резня бензопилой» (1974), повторил свою роль и в этом фильме.

Билл Моусли играл Роберта Сойера в фильме «Техасская резня бензопилой 2» (1986). В этом фильме он сыграл Дрейтона Сойера, повара из первых двух фильмов.

Персонаж Тома Бэрри, шериф Хупер, назван так в честь Тоуба Хупера, который был сценаристом и режиссером первых двух фильмов.
У этого фильма не было предварительного показа для кинокритиков.

В первоначальной версии сценария имя Кожаного Лица было Джебедия Сойер. Однако позже его заменили на Джедидия Сойер. В ремейке 2003 года Джедидия — имя ребенка в семье Хьюитт.

В этом фильме три различных актера играют роль Кожаного Лица. Гуннар Хансен изображает его в архивных кадрах, Сэм МакКинзи играет его в молодости, Дэн Йеджер исполняет основную роль в фильме.

Для рекламы фильма на постерах были использованы слоганы «Жужжи. Убивай.» (Buzz. Kill.) и «Зло носит множество лиц» (Evil Wears Many Faces).

Когда один из персонажей фильма использует приложение FaceTime, чтобы показать остальным, что он видит в доме Сойера, его iPhone фокусируется (это заметно по синему квадрату в центре экрана), но такое не происходит во время видеовызова. Такая индикация говорит о том, что у него просто был включен режим камеры.

События, когда сгорел дом, а вся семья была убита, произошли 19 августа. Однако позже в фильме, когда Хизер читает газету, заметка об этом расположена на первой странице, а само издание датировано 19 августа. Но события, которые описываются в заметке, произошли после того момента, как она вышла.

Действие фильма происходит в 2012 году. В начале картины показывают Хизер Миллер ребенком в 1974 году. Значит, в 2012 году ей должно быть не менее 38 лет, однако ее персонаж выглядит гораздо моложе. Актрисе Александре Даддарио, исполнявшей эту роль, на момент съемок было 26 лет.

Когда подбирают Дэррила, идет сильный дождь. Но в следующих кадрах из машины видно, что за окном никакого дождя нет.

Когда Хизер просматривает коробку с уликами в полицейском участке, она находит экземпляр городской газеты. Когда она переворачивает ее, чтобы прочитать заголовок, на газете указана лишь число, 19 августа, но нет года.

Свернуть
Скриншоты
Изображение
Изображение
Изображение
Свернуть
Не в сети
Профиль  
Начать новую темуОтветить на тему  [ 1 сообщение ] 
Вы не можете начинать темы
Вы не можете отвечать на сообщения
Вы не можете редактировать свои сообщения
Вы не можете удалять свои сообщения