Правила форума

  • В этом разделе создание новых тем Запрещено.
  • Для создания новых тем пользуйтесь Корневым разделом DVD и HD фильмы.
Начать новую темуОтветить на тему  [ Сообщений: 2 ] 
Торрент файл
Размер: 14.4 GB • Зарегистрирован: 2 года 10 месяцев • Статус: Проверено
Скачан: 84 раза • Желающих скачать: 0 • Поблагодарили: 46 раз
 Раздают: 0  |  0 KB/s  ]   Качают: 0  |  0 KB/s  ] 
 Полного источника не было 17 часов 
Сообщения
 Добавлено: 2014-01-28 09:26
Аватара пользователя
Стаж: 9 лет 1 месяц
Сообщений: 8058
Спасибок: 122290
Лайков: 1194
Телекинез (Расширенная версия) / Carrie (Extended Cut)

«Ты ещё узнаешь её имя»

Изображение


Год выпуска: 2013
Страна: Изображение США
Жанр: триллер, ужасы, драма
Продолжительность: 01:40:56
Субтитры: Русские, английские
Перевод: Профессиональный (полное дублирование) [Лицензия] + Авторский (Одноголосый, закадровый) [А. Дольский]

Примечание: UNRATED версия включает альтернативную концовку. Полный превод! Альтернативная концовка озвучена А.Дольским.


Режиссер: Кимберли Пирс
Сценарий: Лоуренс Д. Коэн, Роберто Агирре-Сакаса, Стивен Кинг
Продюсер: Дж. Майлз Дэйл, Кевин Мишер
Оператор: Стив Йедлин
Композитор: Марко Белтрами

В ролях: Клои Грэйс Моретц, Джулианна Мур, Джуди Грир, Энсел Эльгорт, Портия Даблдэй, Габриэлла Уайлд, Коннор Прайс, Алекс Расселл, Мишель Нолден, Макс Топплин, Синтия Престон

Описание: Невзрачная старшеклассница по имени Кэрри с рождения обладает способностями телекинеза. Давление со стороны фанатично религиозной мамочки и постоянные издевки сверстников лишь способствует развитию ее сверхъестественных способностей. На выпускном одноклассники решают жестоко подшутить над ней, что приводит к фатальным последствиям!

Изображение Изображение

Раздача группы: Изображение

Качество: BDRip (1080p)
Формат: Matroska
Видео: MPEG-4 AVC, 10.3 Мбит/с, 1920x800
Аудио №1: Русский (AC3, 48,0 КГц, 6 ch, 384 Кбит/c) Лицензия
Аудио №2: Русский (DTS, 48,0 КГц, 6 ch, 1510 Кбит/c) А. Дольский
Аудио №3: Английский (DTS, 48,0 КГц, 6 ch, 1510 Кбит/c)

MediaInfo
Общее
Уникальный идентификатор : 249350360456282401443034552989615569457 (0xBB9721F11151ED17A3C9077DCCA2BA31)
Полное имя : C:\Фильмы\Carrie.2013.1080p.BluRay.DTS.x264.Rus.Eng.Subs.[R.G.Daredevil].mkv
Формат : Matroska
Версия формата : Version 2
Размер файла : 14,4 Гбайт
Продолжительность : 1 ч. 40 м.
Общий поток : 20,4 Мбит/сек
Дата кодирования : UTC 2014-01-28 05:36:44
Программа кодирования : mkvmerge v5.7.0 ('The Whirlwind') built on Jul 29 2012 15:12:35
Библиотека кодирования : libebml v1.2.3 + libmatroska v1.3.0
Attachment : Yes

Видео
Идентификатор : 1
Формат : AVC
Формат/Информация : Advanced Video Codec
Профиль формата : High@L4.1
Параметр CABAC формата : Да
Параметр ReFrames формата : 5 кадров
Идентификатор кодека : V_MPEG4/ISO/AVC
Продолжительность : 1 ч. 40 м.
Битрейт : 17,0 Мбит/сек
Ширина : 1918 пикселей
Высота : 816 пикселей
Соотношение сторон : 2,35:1
Режим частоты кадров : Постоянный
Частота кадров : 23,976 кадра/сек
Цветовое пространство : YUV
Субдискретизация насыщенности : 4:2:0
Битовая глубина : 8 бит
Тип развёртки : Прогрессивная
Бит/(Пиксели*Кадры) : 0.453
Размер потока : 11,7 Гбайт (81%)
Заголовок : Release for HDBITS
Библиотека кодирования : x264 core 140 r2377+40 929f149 tMod [8-bit@4:2:0 X86_64]
Настройки программы : cabac=1 / ref=5 / deblock=1:-3:-3 / analyse=0x3:0x113 / me=umh / subme=11 / psy=1 / fade_compensate=0.00 / psy_rd=1.10:0.05 / mixed_ref=1 / me_range=48 / chroma_me=1 / trellis=2 / 8x8dct=1 / cqm=0 / deadzone=21,11 / fast_pskip=0 / chroma_qp_offset=-3 / threads=12 / lookahead_threads=3 / sliced_threads=0 / nr=0 / decimate=1 / interlaced=0 / bluray_compat=0 / constrained_intra=0 / fgo=0 / bframes=10 / b_pyramid=2 / b_adapt=2 / b_bias=0 / direct=3 / weightb=1 / open_gop=0 / weightp=2 / keyint=250 / keyint_min=23 / scenecut=40 / intra_refresh=0 / rc_lookahead=60 / rc=2pass / mbtree=0 / bitrate=17000 / ratetol=1.0 / qcomp=0.80 / qpmin=0:0:0 / qpmax=69:69:69 / qpstep=4 / cplxblur=20.0 / qblur=0.5 / vbv_maxrate=62500 / vbv_bufsize=78125 / nal_hrd=none / filler=0 / ip_ratio=1.25 / pb_ratio=1.15 / aq=4:0.80 / aq-sensitivity=11.00 / aq-factor=1.00:1.00:1.00 / aq2=1:0.60 / aq2-sensitivity=9.00 / aq2-factor=1.00:1.00:1.00 / aq3=1:[0.60:0.60]:[0.60:0.60]:[0.60:0.60]:[0.60:0.60] / aq3-sensitivity=10.00 / aq3-factor=[1.00:1.00]:[1.00:1.00]:[1.00:1.00] / aq3-boundary=192:64:24
Язык : English
Default : Да
Forced : Нет
Основные цвета : BT.709
Характеристики трансфера : BT.709
Коэффициенты матрицы : BT.709

Аудио #1
Идентификатор : 2
Формат : AC-3
Формат/Информация : Audio Coding 3
Расширение режима : CM (complete main)
Параметр Endianness формата : Big
Идентификатор кодека : A_AC3
Продолжительность : 1 ч. 40 м.
Вид битрейта : Постоянный
Битрейт : 384 Кбит/сек
Каналы : 6 каналов
Расположение каналов : Front: L C R, Side: L R, LFE
Частота : 48,0 КГц
Битовая глубина : 16 бит
Метод сжатия : С потерями
Размер потока : 277 Мбайт (2%)
Заголовок : Лицензия
Язык : Russian
Default : Да
Forced : Нет

Аудио #2
Идентификатор : 3
Формат : DTS
Формат/Информация : Digital Theater Systems
Режим : 16
Параметр Endianness формата : Big
Идентификатор кодека : A_DTS
Продолжительность : 1 ч. 40 м.
Вид битрейта : Постоянный
Битрейт : 1509 Кбит/сек
Каналы : 6 каналов
Расположение каналов : Front: L C R, Side: L R, LFE
Частота : 48,0 КГц
Битовая глубина : 24 бит
Метод сжатия : С потерями
Размер потока : 1,06 Гбайт (7%)
Заголовок : DTS 5.1 @ 1536 Kbps, Авторский одноголосый |А.Дольский|
Язык : Russian
Default : Нет
Forced : Нет

Аудио #3
Идентификатор : 4
Формат : DTS
Формат/Информация : Digital Theater Systems
Режим : 16
Параметр Endianness формата : Big
Идентификатор кодека : A_DTS
Продолжительность : 1 ч. 40 м.
Вид битрейта : Постоянный
Битрейт : 1509 Кбит/сек
Каналы : 6 каналов
Расположение каналов : Front: L C R, Side: L R, LFE
Частота : 48,0 КГц
Битовая глубина : 24 бит
Метод сжатия : С потерями
Размер потока : 1,06 Гбайт (7%)
Заголовок : DTS 5.1 @ 1536 Kbps, Original
Язык : English
Default : Нет
Forced : Нет

Текст #1
Идентификатор : 5
Формат : UTF-8
Идентификатор кодека : S_TEXT/UTF8
Идентификатор кодека/Информация : UTF-8 Plain Text
Язык : Russian
Default : Нет
Forced : Нет

Текст #2
Идентификатор : 6
Формат : UTF-8
Идентификатор кодека : S_TEXT/UTF8
Идентификатор кодека/Информация : UTF-8 Plain Text
Язык : English
Default : Нет
Forced : Нет

Меню
00:00:00.000 : en:00:00:00.000
00:04:14.546 : en:00:04:14.546
00:06:37.856 : en:00:06:37.856
00:10:07.649 : en:00:10:07.649
00:12:03.681 : en:00:12:03.681
00:14:46.177 : en:00:14:46.177
00:18:50.463 : en:00:18:50.463
00:23:15.060 : en:00:23:15.060
00:26:51.401 : en:00:26:51.401
00:30:50.974 : en:00:30:50.974
00:32:27.863 : en:00:32:27.863
00:36:18.093 : en:00:36:18.093
00:38:20.340 : en:00:38:20.340
00:41:47.755 : en:00:41:47.755
00:46:22.196 : en:00:46:22.196
00:51:01.850 : en:00:51:01.850
00:53:09.853 : en:00:53:09.853
00:55:47.678 : en:00:55:47.678
01:00:52.065 : en:01:00:52.065
01:04:02.338 : en:01:04:02.338
01:07:03.311 : en:01:07:03.311
01:09:38.383 : en:01:09:38.383
01:13:05.381 : en:01:13:05.381
01:18:25.159 : en:01:18:25.159
01:22:46.712 : en:01:22:46.712
01:25:17.863 : en:01:25:17.863
01:29:25.360 : en:01:29:25.360
01:33:36.402 : en:01:33:36.402
Свернуть
Знаете ли вы, что...
Фильм снят по мотивам романа Стивена Кинга «Кэрри» (Carrie, 1974).

Это первая экранизация, в которой актер, исполняющий роль Кэрри, на самом деле является подростком. В период съемок Хлое Грейс Морец было 15 лет. В то время как Сисси Спейсек и Анджеле Беттис, когда они исполняли эту роль, было 26 и 28 лет соответственно.

Шейлин Вудли отказалась от роли Кэрри Уайт. Хейли Беннетт, Дакота Фаннинг, Эмили Браунинг, Лили Коллинз и Белла Хиткот проходили прослушивание. В конечном итоге, главную роль получила Хлоя Грейс Морец.

Планировалось, что роль Маргарет Уайт сыграет Джоди Фостер.

Стивен Кинг предлагал взять на главную роль Линдси Лохан.

Ивана Бакеро должна была исполнять роль Крис Харгенсен, но её заменила Портия Даблдэй.

Слоган «Ты еще узнаешь ее имя» является отсылкой к последним словам песни из бродвейского мюзикла «Кэрри» («Когда-нибудь кто-то будет знать мое имя!»).

Эта история могла никогда не увидеть свет, если бы жена Кинга не спасла один из ранних черновиков книги из мусорного ведра. Кинг очень сомневался в том, что история будет достаточно сильной и эмоциональной. Сам Кинг в своих мемуарах вспоминал: «Она вынула страницы из мусорной корзины, стряхнула сигаретный пепел со смятых листов бумаги, разровняла их и села читать. Затем она сказала, что хочет, чтобы я написал продолжение истории. Она хотела знать, чем все закончится».

Съемки проходили в Торонто летом 2012 года.

Стихотворение, которое Кэрри читает на уроке английского, — это отрывок из поэмы Джона Мильтона «Самсон-борец» (1671).

Среди имён в списке кандидатов на «Короля» и «Королеву» бала есть имя Брайана Крэнстона, известного по роли в сериале «Во все тяжкие» (2008-2013). Стивен Кинг назвал это шоу «лучшим сюжетом, когда-либо показанным на ТВ».

Внимание! Дальнейший список фактов о фильме содержит спойлеры. Будьте осторожны.

Уничтожение дома, на который с неба падают камни, было сделано в цифровом виде. Для этого реально построенную модель дома просканировали лазерным локатором, затем сделали 6500 фотографий и совместили их.

Хотя в книге дважды упоминается, что Сью беременна, только в этой адаптации впервые отразили этот факт.

Когда к Кэрри попадает мяч, сзади неё никого нет, потом показывают учительницу, а в следующем кадре, когда Кэрри собирается кидать мяч, сзади неё сидит девушка.

Когда Кэрри пытается смыть с себя кровь в ванной и начинает плакать, можно заметить, что ее левая рука вся в крови. После смены кадра обе ее руки оказываются чистыми.

Пятно от окровавленной руки Кэрри, оставленное на юбке учительницы физкультуры, сначала представляет собой кляксу, и это видно в сцене в душевой. А в сцене в кабинете директора это уже отпечаток полной ладони, причем расположенный выше на юбке, чем то место, за которое первоначально схватилась Кэрри.

Когда Кэрри практикует свои телекинетические способности на зеркале в ванной, очевидно, что осколки зеркала падают на пол, но в следующем кадре никаких осколков на полу нет.

В сцене рождения Кэрри пуповина исчезает после смены кадра.

Положение волос Кэрри меняется после смены кадра в следующих сценах: когда ее в шкафу будит мама; когда она убирает волосы за ухо при входе в библиотеку; во время разговора с ее учителем физкультуры по поводу выпускного; когда ее мама нападает на нее с ножом.

Когда Кэрри впервые использует свои способности, чтобы поднять свою маму с пола, положение рук Кэрри меняется при смене кадра.

Кровь в глазах Кэрри меняет свое положение при смене кадра, когда она нападает на своих одноклассников в спортзале.

Сразу после того, как Крис перерезает горло свинье, пятна крови исчезают с ее лба.

Положение и выражение лица Кэрри резко меняется при смене кадра в сцене, где она со своим учителем по физкультуре разговаривает о выпускном бале.

Когда Томми во второй раз приглашает Кэрри на выпускной бал, положение креста на шее Кэрри меняется при смене кадра.

Когда Кэрри моется в душе, у нее начинаются месячные, и тогда она полностью голая. В следующей сцене, когда она лежит на полу, видно, что она в нижнем белье.

Когда глаза Кэрри становятся полностью красного цвета в спортзале, можно заметить, что это контактные линзы (виден край одной из них).

Когда Кэрри поднимается с Томми по лестнице на балу при съёмке сверху видно, что она в тапочках, а когда показывают снизу, она в туфлях.

Свернуть
Скриншоты
Изображение
Изображение
Изображение
Изображение
Свернуть
В сети
Профиль  
 Добавлено: 2014-01-29 18:19 (спустя 1 день 8 часов)
Аватара пользователя
Стаж: 8 лет 5 месяцев
Сообщений: 67
Кино на разок, не более. Но посмотреть можно.
Не в сети
Профиль  
Начать новую темуОтветить на тему  [ Сообщений: 2 ] 
Вы не можете начинать темы
Вы не можете отвечать на сообщения
Вы не можете редактировать свои сообщения
Вы не можете удалять свои сообщения