Правила форума

  • В этом разделе создание новых тем Запрещено.
  • Для создания новых тем пользуйтесь Корневым разделом DVD и HD фильмы.
Начать новую темуОтветить на тему  [ Сообщений: 4 ] 
Торрент файл
Размер: 7.93 GB • Зарегистрирован: 5 лет 8 месяцев • Статус: Проверено
Скачан: 263 раза • Желающих скачать: 0 • Поблагодарили: 35 раз
 Раздают: 0  |  0 KB/s  ]   Качают: 0  |  0 KB/s  ] 
 Полного источника не было 2 года 10 месяцев 
Сообщения
 Добавлено: 2011-03-19 17:04
Модератор
Аватара пользователя
Стаж: 8 лет 1 месяц
Возраст: 20
Сообщений: 32130
Спасибок: 98562
Лайков: 80
Телохранитель / London Boulevard
«You don't want Mitch to be a gangster.»

Изображение
Год выпуска: 2010
Страна: Изображение США, Изображение Великобритания
Жанр: мелодрама, криминал
Продолжительность: 01:40:57
Перевод: Оригинальный, Профессиональный (полное дублирование) [лицензия]


Описание: Пытаясь покончить с криминальным прошлым Митч, знакомится с кинозвездой Шарлоттой, которая прячется в своем доме от толпы репортеров и фотографов. Красота и ранимость актрисы покоряют Митча, и он становится ее телохранителем, защищая Шарлотту от агрессивных папарацци, преследователей и прочих негодяев. Но преступный мир так легко его не отпустит...

Релиз: Изображение Раздача: Изображение

Изображение
Изображение
Сборы в России: $1 662 842
Мировая премьера: 26 ноября 2010
Изображение Релиз на DVD: 3 марта 2011, «Монолит»
MPAA: Изображение
Качество: BDRip 1080p R5
Формат: Matroska
Видео: 9125 kb/s, 1920x1040, 23,976 кадр/сек
Аудио: Изображение Russian: AC3, 384 kb/s (6 ch) / Изображение English: DTS, 1510 kb/s (6 ch)
MediaInfo
Полное имя                       : London.Boulevard.2010.D.BDRip.1080p.[uniongang.tv].mkv
Формат                           : Matroska
Размер файла                     : 7,93 Гбайт
Продолжительность                : 1 ч. 43 м.
Общий поток                      : 11,0 Мбит/сек
Название фильма                  : Телохранитель / London Boulevard (2010) .....:::UNIONGANG:::.....
Дата кодирования                 : UTC 2011-03-19 12:08:29
Программа кодирования            : mkvmerge v4.6.0 ('Still Crazy After All These Years') сборка от Mar 10 2011 02:50:32
Библиотека кодирования           : libebml v1.2.0 + libmatroska v1.1.0

Видео
Идентификатор                    : 1
Формат                           : AVC
Формат/Информация                : Advanced Video Codec
Профиль формата                  : High@L4.1
Параметр CABAC формата           : Да
Параметр ReFrames формата        : 4 кадры
Идентификатор кодека             : V_MPEG4/ISO/AVC
Продолжительность                : 1 ч. 43 м.
Битрейт                          : 9125 Кбит/сек
Ширина                           : 1920 пикс.
Высота                           : 1040 пикс.
Соотношение сторон               : 16:9
Частота кадров                   : 23,976 кадр/сек
Цветовое пространство            : YUV
Подвыборка цветности             : 4:2:0
Битовая глубина                  : 8 бит
Тип развёртки                    : Прогрессивная
Бит/(Пиксели*Кадры)              : 0.191
Размер потока                    : 6,41 Гбайт (81%)
Заголовок                        : London.Boulevard.2010.D.BDRip.1080p.AMIABLE
Библиотека кодирования           : x264 core 114 r1913 5fd3dce
Настройки программы              : cabac=1 / ref=4 / deblock=1:0:0 / analyse=0x3:0x113 / me=umh / subme=8 / psy=1 / psy_rd=1.00:0.00 / mixed_ref=1 / me_range=16 / chroma_me=1 / trellis=1 / 8x8dct=1 / cqm=0 / deadzone=21,11 / fast_pskip=1 / chroma_qp_offset=-2 / threads=12 / sliced_threads=0 / nr=0 / decimate=1 / interlaced=0 / constrained_intra=0 / bframes=3 / b_pyramid=2 / b_adapt=2 / b_bias=0 / direct=3 / weightb=1 / open_gop=0 / weightp=2 / keyint=240 / keyint_min=24 / scenecut=40 / intra_refresh=0 / rc_lookahead=50 / rc=2pass / mbtree=1 / bitrate=9125 / ratetol=1.0 / qcomp=0.60 / qpmin=0 / qpmax=69 / qpstep=4 / cplxblur=20.0 / qblur=0.5 / ip_ratio=1.40 / aq=1:1.00
Язык                             : English

Аудио #1
Идентификатор                    : 2
Формат                           : AC-3
Формат/Информация                : Audio Coding 3
Расширение режима                : CM (complete main)
Идентификатор кодека             : A_AC3
Продолжительность                : 1 ч. 43 м.
Вид битрейта                     : Постоянный
Битрейт                          : 384 Кбит/сек
Канал(ы)                         : 6 канала(ов)
Расположение каналов             : Front: L C R, Side: L R, LFE
Частота                          : 48,0 КГц
Битовая глубина                  : 16 бит
Метод сжатия                     : С потерями
Размер потока                    : 283 Мбайт (3%)
Заголовок                        : AC3 5.1 @ 384 kb/s [Russian DUB R5]
Язык                             : Russian

Аудио #2
Идентификатор                    : 3
Формат                           : DTS
Формат/Информация                : Digital Theater Systems
Идентификатор кодека             : A_DTS
Продолжительность                : 1 ч. 43 м.
Вид битрейта                     : Постоянный
Битрейт                          : 1510 Кбит/сек
Канал(ы)                         : 6 канала(ов)
Расположение каналов             : Front: L C R, Side: L R, LFE
Частота                          : 48,0 КГц
Битовая глубина                  : 24 бит
Метод сжатия                     : С потерями
Задержка видео                   : 33 мс.
Размер потока                    : 1,09 Гбайт (14%)
Заголовок                        : DTS 5.1 @ 1510 kb/s [English]
Язык                             : English

Текст
Идентификатор                    : 4
Формат                           : UTF-8
Идентификатор кодека             : S_TEXT/UTF8
Идентификатор кодека/Информация  : UTF-8 Plain Text
Заголовок                        : English SUB
Язык                             : English

Меню
00:00:00.000                     : en:00:00:00.000
00:09:36.493                     : en:00:09:36.493
00:21:14.982                     : en:00:21:14.982
00:30:59.649                     : en:00:30:59.649
00:39:22.068                     : en:00:39:22.068
00:49:02.898                     : en:00:49:02.898
00:59:40.577                     : en:00:59:40.577
01:09:29.040                     : en:01:09:29.040
01:16:17.907                     : en:01:16:17.907
01:24:33.944                     : en:01:24:33.944
01:31:38.076                     : en:01:31:38.076
01:36:46.926                     : en:01:36:46.926
Свернуть

Скриншоты
Изображение
Изображение
Изображение
Свернуть
Не в сети
Профиль  
 Добавлено: 2011-03-20 12:43 (спустя 19 часов)
Аватара пользователя
Стаж: 7 лет 10 месяцев
Сообщений: 31
Нармуль фильм!
Не в сети
Профиль  
 Добавлено: 2011-05-07 15:47 (спустя 1 месяц 18 дней)
Стаж: 5 лет 10 месяцев
Сообщений: 16
:-ok-:
Не в сети
Профиль  
 Добавлено: 2011-05-31 21:53 (спустя 24 дня)
Пользователь забанен
Аватара пользователя
Стаж: 5 лет 6 месяцев
Возраст: 21
Сообщений: 37
Спасибок: 102
Нет слов
:co_ol:
Не в сети
Профиль  
Начать новую темуОтветить на тему  [ Сообщений: 4 ] 
Вы не можете начинать темы
Вы не можете отвечать на сообщения
Вы не можете редактировать свои сообщения
Вы не можете удалять свои сообщения