Правила форума

  • В этом разделе создание новых тем Запрещено.
  • Для создания новых тем пользуйтесь Корневым разделом DVD и HD фильмы.
Начать новую темуОтветить на тему  [ 1 сообщение ] 
Торрент файл
Размер: 4.65 GB • Зарегистрирован: 5 лет 8 месяцев • Статус: Проверено
Скачан: 78 раз • Желающих скачать: 0 • Поблагодарили: 18 раз
 Раздают: 0  |  0 KB/s  ]   Качают: 0  |  0 KB/s  ] 
 Полного источника не было 8 месяцев 
Сообщения
 Добавлено: 2011-03-18 18:04
Top-releaser
Аватара пользователя
Стаж: 7 лет 3 месяца
Возраст: 25
Сообщений: 1036
Спасибок: 2694
Лайков: 9
Телохранитель / London Boulevard

Изображение



Год выхода: 2010
Страна: США, Великобритания
Cлоган: «You don't want Mitch to be a gangster.»

Жанр: мелодрама, криминал
Продолжительность: 01:43:01
Перевод: Дублированное [лицензия]

Режиссер: Уильям Монахэн
Сценарий: Уильям Монахэн, Кен Бруен
Продюсер: Квентин Кертис, Тим Хэдингтон, Грэм Кинг
Оператор: Крис Менджис
Композитор: Серджо Пиццорно

В ролях: Колин Фаррелл, Кира Найтли, Рэй Уинстон, Стивен Грэм, Анна Фрил, Дэвид Тьюлис, Офелия Ловибонд, Джейми Кэмпбелл Бауэр, Бен Чаплин, Эдди Марсан

Описание: Пытаясь покончить с криминальным прошлым Митч, знакомится с кинозвездой Шарлоттой, которая прячется в своем доме от толпы репортеров и фотографов. Красота и ранимость актрисы покоряют Митча, и он становится ее телохранителем, защищая Шарлотту от агрессивных папарацци, преследователей и прочих негодяев. Но преступный мир так легко его не отпустит…

KinoPoisk.ru: 6.366
IMDb.com: 6.5/10

pаздача группы:Изображение

Качество: BDRip 720p
Формат: MKV
Видео: MPEG4 Video (H264) 1280x696 23.98fps
Аудио 1: Russian: AC3, 384 kb/s (6 ch)
Аудио 2: English: DTS, 1510 kb/s (6 ch)
Subtitle: English

Изображение

MediaInfo
General
Unique ID : 249344423946525142996819295221960060178 (0xBB95FD3FC7C07D758AAD3DD6D9EAAD12)
Complete name : G:\ReLease\London.Boulevard.D.BDRip.720p.mkv
Format : Matroska
File size : 4.65 GiB
Duration : 1h 43mn
Overall bit rate : 6 458 Kbps
Movie name : Телохранитель / London Boulevard (2010) .....:::UNIONGANG:::.....
Encoded date : UTC 2011-03-18 10:38:50
Writing application : mkvmerge v4.6.0 ('Still Crazy After All These Years') сборка от Mar 10 2011 02:50:32
Writing library : libebml v1.2.0 + libmatroska v1.1.0

Video
ID : 1
Format : AVC
Format/Info : Advanced Video Codec
Format profile : High@L4.1
Format settings, CABAC : Yes
Format settings, ReFrames : 5 frames
Codec ID : V_MPEG4/ISO/AVC
Duration : 1h 43mn
Bit rate : 4 564 Kbps
Width : 1 280 pixels
Height : 696 pixels
Display aspect ratio : 16:9
Frame rate : 23.976 fps
Color space : YUV
Chroma subsampling : 4:2:0
Bit depth : 8 bits
Scan type : Progressive
Bits/(Pixel*Frame) : 0.214
Stream size : 3.19 GiB (69%)
Title : London.Boulevard.2010.D.BDRip.720p.AMIABLE
Writing library : x264 core 114 r1913 5fd3dce
Encoding settings : cabac=1 / ref=5 / deblock=1:0:0 / analyse=0x3:0x113 / me=umh / subme=8 / psy=1 / psy_rd=1.00:0.00 / mixed_ref=1 / me_range=16 / chroma_me=1 / trellis=1 / 8x8dct=1 / cqm=0 / deadzone=21,11 / fast_pskip=1 / chroma_qp_offset=-2 / threads=12 / sliced_threads=0 / nr=0 / decimate=1 / interlaced=0 / constrained_intra=0 / bframes=3 / b_pyramid=2 / b_adapt=2 / b_bias=0 / direct=3 / weightb=1 / open_gop=0 / weightp=2 / keyint=240 / keyint_min=24 / scenecut=40 / intra_refresh=0 / rc_lookahead=50 / rc=2pass / mbtree=1 / bitrate=4564 / ratetol=1.0 / qcomp=0.60 / qpmin=0 / qpmax=69 / qpstep=4 / cplxblur=20.0 / qblur=0.5 / ip_ratio=1.40 / aq=1:1.00
Language : English

Audio #1
ID : 2
Format : AC-3
Format/Info : Audio Coding 3
Mode extension : CM (complete main)
Codec ID : A_AC3
Duration : 1h 43mn
Bit rate mode : Constant
Bit rate : 384 Kbps
Channel(s) : 6 channels
Channel positions : Front: L C R, Side: L R, LFE
Sampling rate : 48.0 KHz
Bit depth : 16 bits
Compression mode : Lossy
Stream size : 283 MiB (6%)
Title : AC3 5.1 @ 384 kb/s [Russian DUB R5]
Language : Russian

Audio #2
ID : 3
Format : DTS
Format/Info : Digital Theater Systems
Codec ID : A_DTS
Duration : 1h 43mn
Bit rate mode : Constant
Bit rate : 1 510 Kbps
Channel(s) : 6 channels
Channel positions : Front: L C R, Side: L R, LFE
Sampling rate : 48.0 KHz
Bit depth : 24 bits
Compression mode : Lossy
Delay relative to video : 22ms
Stream size : 1.09 GiB (23%)
Title : DTS 5.1 @ 1510 kb/s [English]
Language : English

Text
ID : 4
Format : UTF-8
Codec ID : S_TEXT/UTF8
Codec ID/Info : UTF-8 Plain Text
Title : English SUB
Language : English

Menu
00:00:00.000 : en:00:00:00.000
00:09:36.493 : en:00:09:36.493
00:21:14.982 : en:00:21:14.982
00:30:59.649 : en:00:30:59.649
00:39:22.068 : en:00:39:22.068
00:49:02.898 : en:00:49:02.898
00:59:40.577 : en:00:59:40.577
01:09:29.040 : en:01:09:29.040
01:16:17.907 : en:01:16:17.907
01:24:33.944 : en:01:24:33.944
01:31:38.076 : en:01:31:38.076
01:36:46.926 : en:01:36:46.926


Свернуть
Скриншоты
Изображение
Изображение
Изображение
Изображение
Изображение
Свернуть
Не в сети
Профиль  
Начать новую темуОтветить на тему  [ 1 сообщение ] 
Вы не можете начинать темы
Вы не можете отвечать на сообщения
Вы не можете редактировать свои сообщения
Вы не можете удалять свои сообщения