Правила форума

  • В этом разделе создание новых тем Запрещено.
  • Для создания новых тем пользуйтесь Корневым разделом DVD и HD фильмы.
Начать новую темуОтветить на тему  [ Сообщений: 3 ] 
Торрент файл
Размер: 17.44 GB • Зарегистрирован: 4 года 9 месяцев • Статус: Проверено
Скачан: 58 раз • Желающих скачать: 0 • Поблагодарили: 18 раз
 Раздают: 0  |  0 KB/s  ]   Качают: 0  |  0 KB/s  ] 
 Полного источника не было 3 часа 
Сообщения
 Добавлено: 2012-02-12 19:54
Пользователь забанен
Стаж: 8 лет 11 месяцев
Сообщений: 143
Спасибок: 603
Телохранитель / The Bodyguard

Изображение


Год выпуска: 1992
Страна: США
Слоган: «Ни на миг не упускать ее из вида. Ни на секунду не терять бдительность. Не позволить себе в нее влюбиться.»
Жанр: триллер, драма, мелодрама, музыка
Продолжительность: 2 ч. 9 мин
Перевод: Профессиональный (двухголосый закадровый) [А.Клюквин и Н.Казначеева, НТВ] + Профессиональный (дубляж)
Субтитры: Английские

Режиссёр: Мик Джексон
Сценарист: Лоуренс Кэздан
Продюсер: Кевин Костнер, Лоуренс Кэздан, Джим Уилсон
Оператор: Эндрю Данн
Композитор: Аллан Дэннис Рич, Алан Сильвестри
В ролях: Кевин Костнер, Уитни Хьюстон, Гари Кемп, Билл Коббс, Ральф Уэйт, Томас Арана, Мишель Ламар Ричардс
Описание: Фрэнк Фармер, сотрудник службы безопасности президента Рейгана, чувствует себя отчасти виновным в том, что в его отсутствие на президента было совершено покушение. Он покидает службу и за большой гонорар, но все же нехотя, нанимается телохранителем чернокожей певицы и актрисы Рэйчел Мэррон, которая постоянно получает письма с угрозами.

Первоначальная антипатия, возникшая между ними, постепенно перерастает в любовь. Сложившаяся ситуация мешает телохранителю исполнять свой профессиональный долг, что приводит к частым конфликтам между Фрэнком и Рэйчел… Фармер приходит к выводу, что угроза жизни Рэйчел исходит отнюдь не от психопата, а от профессионального убийцы.
Доп.информация:
Рейтинг MPAA: Рейтинг R (Подростки до 17 лет допускаются на фильм только в сопровождении одного из родителей)
Мировая премьера: 25 ноября 1992
Бюджет: $40 000 000
Кассовые сборы: $410 945 720
Изображение 7.938 (18 913)

Качество: HDTV 1080i
Формат: MKV
Видео кодек: MPEG2
Аудио кодек: AC3 (Dolby Digital)
Видео: 1920x1080 at 29.970 fps, MPEG-2, ~17.54 Mbps avg
Аудио #1: 48 kHz, AC3 Dolby Digital, 2/0 (L,R) ch, ~192 kbps (Перевод Л. Володарского, озвучивание А.Клюквин и Н.Казначеева [Профессиональный (двухголосый закадровый)]
Аудио #2: 48 kHz, AC3 Dolby Digital, 3/2 (L,C,R,l,r) + LFE ch, ~384 kbps [Профессиональный (дубляж), Мост-видео]
Аудио #3: 48 kHz, AC3 Dolby Digital, 2/0 (L,R) ch, ~192 kbps |Дубляж, VHS ‒ Гемени-фильм| (отдельно)
Аудио #4: 48 kHz, AC3 Dolby Digital, 3/2 (L,C,R,l,r) + LFE ch, ~384 kbps |AVO, Андрей Гаврилов| (отдельно)
Аудио #5: 48 kHz, AC3 Dolby Digital, 3/2 (L,C,R,l,r) + LFE ch, ~384 kbps |AVO, Юрий Живов| (отдельно)
Аудио #6: 48 kHz, AC3 Dolby Digital, 2/0 (L,R) ch, ~192 kbps |AVO, Кузнецов| (отдельно)
Субтитры: Английские
Скриншоты
Изображение
Изображение
Изображение
Изображение
Свернуть


Знаете ли Вы, что...
Песня «I will always love you» была позаимствована из старого репертуара Долли Партон.
Для молодой певицы Уитни Хьюстон роль в картине стала первой в большом кино.
Сценарий двадцатилетней давности Лоренса Кэздана писался в расчете на актера Стива МакКуина и певицу Дайану Росс.
Особняк Рейчел тот же, что и в фильме «Крёстный отец» (1972).
Рейчел и Френк идут смотреть картину Акиры Курасавы «Yojimbo» (1961), которая была выпущена в США под названием «Телохранитель» (The Bodyguard).
Саундтрек к фильму, включая композицию «I will always love you», вошёл в список 50 самых продаваемых музыкальных альбомов 20 века (в списке также фигурируют звуковые дорожки к фильмам «Титаник», «Грязные танцы» и мультфильму «Король-лев» с песнями в исполнении Элтона Джона).
Клип Рэйчел Мэррон, который демонстрируется на экранах во время выступления в клубе практически целиком смонтирован из фрагментов фильма «Метрополис» Фрица Ланга. Также на девятой минуте фильма встречается копия робота из «Метрополиса».
Свернуть

Mediainfo
Общее
Уникальный идентификатор : 204227730276013494902532055473564164172 (0x99A4D482D40B5BC38BC2E0C98EB0204C)
Полное имя : D:\Telohranitel.1992.RUS\The.Bodyguard.1992.1080i.mkv
Формат : Matroska
Версия формата : Version 2
Размер файла : 16,4 Гбайт
Продолжительность : 2 ч. 9 м.
Режим общего битрейта : Переменный
Общий поток : 18,1 Мбит/сек
Дата кодирования : UTC 2012-02-12 15:57:19
Программа кодирования : mkvmerge v5.3.0 ('I could have danced') built on Feb 9 2012 10:38:07
Библиотека кодирования : libebml v1.2.3 + libmatroska v1.3.0

Видео
Идентификатор : 1
Формат : MPEG Video
Версия формата : Version 2
Профиль формата : Main@High
Параметр BVOP формата : Да
Параметр матрицы формата : Выборочная
Параметр GOP формата : N=1
Идентификатор кодека : V_MPEG2
Идентификатор кодека/Информация : MPEG 1 or 2 Video
Продолжительность : 2 ч. 9 м.
Вид битрейта : Переменный
Битрейт : 17,2 Мбит/сек
Максимальный битрейт : 20,0 Мбит/сек
Ширина : 1920 пикселей
Высота : 1080 пикселей
Соотношение сторон : 16:9
Частота кадров : 29,970 кадров/сек
Цветовое пространство : YUV
Субдискретизация насыщенности : 4:2:0
Битовая глубина : 8 бит
Тип развёртки : Чересстрочная
Порядок развёртки : Верхнее поле первое
Метод сжатия : С потерями
Бит/(Пиксели*Кадры) : 0.277
Размер потока : 15,5 Гбайт (95%)
Default : Да
Forced : Нет

Аудио #1
Идентификатор : 2
Формат : AC-3
Формат/Информация : Audio Coding 3
Расширение режима : CM (complete main)
Режим смешивания : Header stripping
Идентификатор кодека : A_AC3
Продолжительность : 2 ч. 9 м.
Вид битрейта : Постоянный
Битрейт : 192 Кбит/сек
Каналы : 2 канала
Расположение каналов : Front: L R
Частота : 48,0 КГц
Битовая глубина : 16 бит
Метод сжатия : С потерями
Размер потока : 177 Мбайт (1%)
Заголовок : Двухголосый, НТВ - Профит (А.Клюквин и Н.Казначеева)
Язык : Russian
Default : Да
Forced : Нет

Аудио #2
Идентификатор : 3
Формат : AC-3
Формат/Информация : Audio Coding 3
Расширение режима : CM (complete main)
Режим смешивания : Header stripping
Идентификатор кодека : A_AC3
Продолжительность : 2 ч. 9 м.
Вид битрейта : Постоянный
Битрейт : 384 Кбит/сек
Каналы : 6 каналов
Расположение каналов : Front: L C R, Side: L R, LFE
Частота : 48,0 КГц
Битовая глубина : 16 бит
Метод сжатия : С потерями
Размер потока : 355 Мбайт (2%)
Заголовок : Дубляж, Most-video
Язык : Russian
Default : Нет
Forced : Нет
Свернуть

Настоятельно рекомендую абонентам домашнего интернета Билайн добавить ретрекер http://195.98.50.122/announce


Последний раз редактировалось b00ze 2012-02-13 20:31, всего редактировалось 2 раз(а).
Не в сети
Профиль  
 Добавлено: 2012-02-13 19:25 (спустя 23 часа)
Пользователь забанен
Стаж: 8 лет 11 месяцев
Сообщений: 143
Спасибок: 603
Иванишко, спасибо за подробное разъяснение.
Не в сети
Профиль  
 Добавлено: 2012-04-05 10:56 (спустя 1 месяц 20 дней)
Аватара пользователя
Стаж: 8 лет 3 месяца
Возраст: 43
Сообщений: 3290
Спасибок: 21012
Лайков: 3
отлепляем :(
_________________
Изображение
Не в сети
Профиль  
Начать новую темуОтветить на тему  [ Сообщений: 3 ] 
Вы не можете начинать темы
Вы не можете отвечать на сообщения
Вы не можете редактировать свои сообщения
Вы не можете удалять свои сообщения