Правила форума

  • В этом разделе создание новых тем Запрещено.
  • Для создания новых тем пользуйтесь Корневым разделом DVD и HD фильмы.
Начать новую темуОтветить на тему  [ 1 сообщение ] 
Торрент файл
Размер: 9.68 GB • Зарегистрирован: 2 года • Статус: Проверено
Скачан: 107 раз • Желающих скачать: 0 • Поблагодарили: 22 раза
 Раздают: 1  |  66 KB/s  ]   Качают: 0  |  0 KB/s  ] 
Сообщения
 Добавлено: 2014-11-30 22:05
Аватара пользователя
Стаж: 9 лет 1 месяц
Сообщений: 7977
Спасибок: 122203
Лайков: 1191
Тэмми (Театральная версия) / Tammy (Theatrical Cut)

«She hit the road. The road hit back»

Изображение


Год выпуска: 2014
Страна: Изображение США
Жанр: комедия
Продолжительность: 01:36:45
Субтитры: Английские
Перевод: Профессиональный (многоголосый, закадровый) [Лицензия]


Режиссер: Бен Фэлкоун
Сценарий: Мелисса МакКарти, Бен Фэлкоун
Продюсер: Уилл Феррелл, Мелисса МакКарти, Адам МакКей
Оператор: Расс Т. Олсоубрук
Композитор: Майкл Эндрюс

В ролях: Мелисса МакКарти, Сьюзен Сарандон, Кэти Бэйтс, Эллисон Джэнни, Дэн Эйкройд, Марк Дюпласс, Гэри Коул, Нат Факсон, Тони Коллетт


Описание: Тэмми увольняют из ресторана быстрого питания. Возвращаясь домой, она застает своего мужа за романтическим ужином с соседкой. Увидев это, Тэмми собирает вещи и отправляется к родителям. Расстроенная героиня решает поехать в путешествие к Ниагарскому водопаду, вот только ее мама отказывается дать ей свою машину. Тэмми прибегает к помощи бабушки Перл. В итоге они вместе с бабулей отправляются в путь, и вскоре выясняется, что Перл большая любительница выпить…

Изображение Изображение

Раздача группы: Изображение

Качество: BDRip (1080p)
Формат: Matroska
Видео: MPEG-4 AVC, 13.9 Мбит/с, 1920х1080
Аудио: Русский (AC3, 48,0 КГц, 6 ch, 448 Кбит/c)

MediaInfo
Общее
Уникальный идентификатор : 227592402052223016195276894605454848828 (0xAB38B3C4DE94C99480EA7CEA8087B33C)
Полное имя : F:\Tammy.2014.P.BDRip.1080p.ELEKTRI4KA.mkv
Формат : Matroska
Версия формата : Version 2
Размер файла : 9,68 Гбайт
Продолжительность : 1 ч. 48 м.
Общий поток : 12,7 Мбит/сек
Название фильма : Tammy.2014.P.BDRip.1080p.ELEKTRI4KA[TimeMashine]
Дата кодирования : UTC 2014-11-30 08:20:51
Программа кодирования : mkvmerge v5.6.0 ('Kenya Kane') built on Jun 29 2012 15:01:44
Библиотека кодирования : libebml v1.2.3 + libmatroska v1.3.0

Видео
Идентификатор : 1
Формат : AVC
Формат/Информация : Advanced Video Codec
Профиль формата : High@L4.1
Параметр CABAC формата : Да
Параметр ReFrames формата : 8 кадров
Идентификатор кодека : V_MPEG4/ISO/AVC
Продолжительность : 1 ч. 48 м.
Битрейт : 12,0 Мбит/сек
Номинальный битрейт : 13,9 Мбит/сек
Ширина : 1920 пикселей
Высота : 1080 пикселей
Соотношение сторон : 16:9
Режим частоты кадров : Постоянный
Частота кадров : 23,976 кадра/сек
Цветовое пространство : YUV
Субдискретизация насыщенности : 4:2:0
Битовая глубина : 8 бит
Тип развёртки : Прогрессивная
Бит/(Пиксели*Кадры) : 0.242
Размер потока : 9,14 Гбайт (94%)
Заголовок : Tammy.2014.P.BDRip.1080p.ELEKTRI4KA[TimeMashine]
Библиотека кодирования : x264 core 125 r2200 999b753
Настройки программы : cabac=1 / ref=8 / deblock=1:-3:-3 / analyse=0x3:0x133 / me=umh / subme=10 / psy=1 / psy_rd=1.00:0.20 / mixed_ref=1 / me_range=22 / chroma_me=1 / trellis=2 / 8x8dct=1 / cqm=0 / deadzone=21,11 / fast_pskip=1 / chroma_qp_offset=-3 / threads=12 / lookahead_threads=2 / sliced_threads=0 / nr=0 / decimate=1 / interlaced=0 / bluray_compat=0 / constrained_intra=0 / bframes=8 / b_pyramid=2 / b_adapt=2 / b_bias=0 / direct=3 / weightb=1 / open_gop=0 / weightp=2 / keyint=250 / keyint_min=23 / scenecut=40 / intra_refresh=0 / rc_lookahead=60 / rc=2pass / mbtree=1 / bitrate=13854 / ratetol=1.0 / qcomp=0.60 / qpmin=0 / qpmax=69 / qpstep=4 / cplxblur=20.0 / qblur=0.5 / ip_ratio=1.40 / aq=1:1.00
Язык : English
Default : Да
Forced : Нет

Аудио
Идентификатор : 2
Формат : AC-3
Формат/Информация : Audio Coding 3
Расширение режима : CM (complete main)
Параметр Endianness формата : Big
Идентификатор кодека : A_AC3
Продолжительность : 1 ч. 48 м.
Вид битрейта : Постоянный
Битрейт : 448 Кбит/сек
Каналы : 6 каналов
Расположение каналов : Front: L C R, Side: L R, LFE
Частота : 48,0 КГц
Битовая глубина : 16 бит
Метод сжатия : С потерями
Размер потока : 349 Мбайт (4%)
Заголовок : R5-ELEKTRI4KA[kolbas]
Язык : Russian
Default : Да
Forced : Нет

Текст
Идентификатор : 3
Формат : PGS
Режим смешивания : zlib
Идентификатор кодека : S_HDMV/PGS
Идентификатор кодека/Информация : The same subtitle format used on BDs/HD-DVDs
Язык : English
Default : Нет
Forced : Нет
Свернуть
Знаете ли вы, что...
Сюжет основан на сне, который приснился Бену Фэлкоуну. Сон был о его жене Мелиссе МакКарти, сотруднице фастфуд-ресторана, чья жизнь разваливается.

Первоначально на роль бабушки планировали взять Ширли МакЛейн, но поскольку не удалось согласовать расписание съемок с сериалом «Аббатство Даунтон» (2010), в котором была задействована актриса, ее роль отдали Сьюзен Сарандон. Также на эту роль рассматривалась кандидатура Дебби Рейнолдс.

В начале фильма, когда Тэмми увольняют, можно заметить, что зажим для галстука Бена Фэлкоуна меняет свое положение при смене кадра.

Когда Тэмми отправляется в дом престарелых, чтобы вызволить оттуда свою бабушку, по сюжету они должны быть в Иллинойсе, но у всех машин на парковке номерные знаки штата Кентукки.

Свернуть
Скриншоты
Изображение
Изображение
Изображение
Изображение]
Свернуть
Не в сети
Профиль  
Начать новую темуОтветить на тему  [ 1 сообщение ] 
Вы не можете начинать темы
Вы не можете отвечать на сообщения
Вы не можете редактировать свои сообщения
Вы не можете удалять свои сообщения