Правила форума

  • В этом разделе создание новых тем Запрещено.
  • Для создания новых тем пользуйтесь Корневым разделом DVD и HD фильмы.
Начать новую темуОтветить на тему  [ Сообщений: 5 ] 
Торрент файл
Размер: 10.76 GB • Зарегистрирован: 2 года 2 месяца • Статус: Проверено
Скачан: 59 раз • Желающих скачать: 0 • Поблагодарили: 24 раза
 Раздают: 0  |  0 KB/s  ]   Качают: 0  |  0 KB/s  ] 
 Полного источника не было 3 часа 
Сообщения
 Добавлено: 2014-09-21 13:42
Руководитель релиз-группы
Аватара пользователя
Стаж: 7 лет 2 месяца
Возраст: 4
Сообщений: 5213
Спасибок: 19350
Лайков: 2312
Тёмная долина / Das finstere Tal

Изображение


Год выпуска: 2014
Страна: Австрия, Германия / Allegro Film, X-Filme Creative Pool
Жанр: Вестерн
Продолжительность: 01:54:44
Перевод: Профессиональный (дубляж)

Режиссёр: Андреас Прохазка
В ролях: Сэм Райли, Тобиас Моретти, Хельмут Хеуслер, Мартин Лойтгеб, Йоханнес Николусси, Клеменс Шик, Флориан Брюкнер, Ганс-Михаэль Реберг, Эрвин Штайнхауэр, Франц Ксавер Брюкнер
Описание: Тайными путями одинокий всадник пробирается в маленький городок высоко в Альпах. Никто не знает, откуда прибыл незнакомец и чего он хочет. Но в одном жители городка уверены — они не хотят, чтобы он оставался здесь.


Качество: BDRip [1080p]
Аудио кодек: AC3 (Dolby Digital)
Видео: MPEG-4 AVC, ~11.3 Мбит/сек, 1920x816, 24.000 кадр/с
Аудио #1: Russian: AC3, 640 kb/s (6 ch) / German: DTS,1509 kbps (6 ch) [Профессиональный (дубляж)]
Скриншоты
Изображение
Изображение
Изображение
Свернуть


MI
E:с торрентовThe.Dark.Valley.2014.x264.BDRip.1080p.mkv
General
Unique ID : 230265985153460533131721360734772435607 (0xAD3B9D97D615DC2E8A1B84198E529A97)
Complete name : E:с торрентовThe.Dark.Valley.2014.x264.BDRip.1080p.mkv
Format : Matroska
Format version : Version 4 / Version 2
File size : 10.8 GiB
Duration : 1h 54mn
Overall bit rate : 13.4 Mbps
Movie name : Temnaya.dolina.2014.x264.BDRip.1080p.gogamel74.ExKinoRay
Encoded date : UTC 2014-09-20 17:24:46
Writing application : mkvmerge v7.2.0 ('On Every Street') 64bit built on Sep 13 2014 15:52:10
Writing library : libebml v1.3.0 + libmatroska v1.4.1
DURATION : 01:54:44.042000000
NUMBER_OF_FRAMES : 165217
NUMBER_OF_BYTES : 9697316533
_STATISTICS_WRITING_APP : mkvmerge v7.2.0 ('On Every Street') 64bit built on Sep 13 2014 15:52:10
_STATISTICS_WRITING_DATE_UTC : 2014-09-20 17:24:46
_STATISTICS_TAGS : BPS DURATION NUMBER_OF_FRAMES NUMBER_OF_BYTES
Attachment : Yes
Video #1
ID : 1
Format : AVC
Format/Info : Advanced Video Codec
Format profile : High@L4.1
Format settings, CABAC : Yes
Format settings, ReFrames : 5 frames
Codec ID : V_MPEG4/ISO/AVC
Duration : 1h 54mn
Bit rate : 11.3 Mbps
Width : 1 920 pixels
Height : 816 pixels
Display aspect ratio : 2.35:1
Frame rate mode : Constant
Frame rate : 24.000 fps
Color space : YUV
Chroma subsampling : 4:2:0
Bit depth : 8 bits
Scan type : Progressive
Bits/(Pixel*Frame) : 0.300
Stream size : 8.82 GiB (82%)
Title : Temnaya.dolina.2014.x264.BDRip.1080p.gogamel74.ExKinoRay
Writing library : x264 core 142 r2431 ac76440
Encoding settings : cabac=1 / ref=5 / deblock=1:-3:-3 / analyse=0x3:0x133 / me=umh / subme=11 / psy=1 / psy_rd=1.00:0.15 / mixed_ref=1 / me_range=32 / chroma_me=1 / trellis=2 / 8x8dct=1 / cqm=0 / deadzone=21,11 / fast_pskip=0 / chroma_qp_offset=-3 / threads=8 / lookahead_threads=2 / sliced_threads=0 / nr=0 / decimate=0 / interlaced=0 / bluray_compat=0 / constrained_intra=0 / bframes=10 / b_pyramid=2 / b_adapt=2 / b_bias=0 / direct=3 / weightb=1 / open_gop=0 / weightp=2 / keyint=240 / keyint_min=24 / scenecut=40 / intra_refresh=0 / rc_lookahead=60 / rc=2pass / mbtree=1 / bitrate=11277 / ratetol=1.0 / qcomp=0.70 / qpmin=0 / qpmax=69 / qpstep=4 / cplxblur=20.0 / qblur=0.5 / vbv_maxrate=50000 / vbv_bufsize=62500 / nal_hrd=none / filler=0 / ip_ratio=1.40 / aq=1:1.00
Language : German
Default : Yes
Forced : Yes
Audio #2
ID : 2
Format : AC-3
Format/Info : Audio Coding 3
Mode extension : CM (complete main)
Format settings, Endianness : Big
Codec ID : A_AC3
Duration : 1h 54mn
Bit rate mode : Constant
Bit rate : 640 Kbps
Channel(s) : 6 channels
Channel positions : Front: L C R, Side: L R, LFE
Sampling rate : 48.0 KHz
Bit depth : 16 bits
Compression mode : Lossy
Stream size : 525 MiB (5%)
Title : MVO - Pozitiv po zakazu Russkiy Reportazh
Language : Russian
Default : Yes
Forced : Yes
DURATION : 01:54:44.064000000
NUMBER_OF_FRAMES : 215127
NUMBER_OF_BYTES : 550725120
_STATISTICS_WRITING_APP : mkvmerge v7.2.0 ('On Every Street') 64bit built on Sep 13 2014 15:52:10
_STATISTICS_WRITING_DATE_UTC : 2014-09-20 17:24:46
_STATISTICS_TAGS : BPS DURATION NUMBER_OF_FRAMES NUMBER_OF_BYTES
Audio #3
ID : 3
Format : DTS
Format/Info : Digital Theater Systems
Mode : 16
Format settings, Endianness : Big
Codec ID : A_DTS
Duration : 1h 54mn
Bit rate mode : Constant
Bit rate : 1 509 Kbps
Channel(s) : 6 channels
Channel positions : Front: L C R, Side: L R, LFE
Sampling rate : 48.0 KHz
Bit depth : 16 bits
Compression mode : Lossy
Stream size : 1.21 GiB (11%)
Title : Original - Blu-Ray
Language : German
Default : No
Forced : No
DURATION : 01:54:44.043000000
NUMBER_OF_FRAMES : 645379
NUMBER_OF_BYTES : 1298502548
_STATISTICS_WRITING_APP : mkvmerge v7.2.0 ('On Every Street') 64bit built on Sep 13 2014 15:52:10
_STATISTICS_WRITING_DATE_UTC : 2014-09-20 17:24:46
_STATISTICS_TAGS : BPS DURATION NUMBER_OF_FRAMES NUMBER_OF_BYTES
Menu
00:00:00.000 : en:Chapter 01
00:09:40.250 : en:Chapter 02
00:20:09.708 : en:Chapter 03
00:28:27.083 : en:Chapter 04
00:39:48.625 : en:Chapter 05
00:49:15.416 : en:Chapter 06
00:56:12.833 : en:Chapter 07
01:03:55.541 : en:Chapter 08
01:08:34.083 : en:Chapter 09
01:21:32.958 : en:Chapter 10
01:33:25.583 : en:Chapter 11
01:49:57.166 : en:Chapter 12
Свернуть
Не в сети
Профиль  
 Добавлено: 2014-09-21 15:28 (спустя 1 час 46 минут)
Top-releaser
Аватара пользователя
Стаж: 6 лет 7 месяцев
Сообщений: 2078
Спасибок: 3230
Лайков: 9
Как фильм?
Не в сети
Профиль  
 Добавлено: 2014-09-21 20:33 (спустя 5 часов)
Стаж: 3 года 10 месяцев
Сообщений: 1
не качается
Не в сети
Профиль  
 Добавлено: 2014-09-23 20:16 (спустя 1 день 23 часа)
Top-seeder
Аватара пользователя
Стаж: 8 лет 1 месяц
Возраст: 102
Сообщений: 6779
Спасибок: 2009
Лайков: 5756
yyuuii1223
Жестокий фильм. Очень натурально и жестко.
 sergei79 нравится это.
Не в сети
Профиль  
 Добавлено: 2014-09-25 00:12 (спустя 1 день 3 часа)
Top-seeder
Стаж: 9 лет 1 месяц
Сообщений: 748
Спасибок: 636
Лайков: 3
Рекомендую к просмотру.
Не в сети
Профиль  
Начать новую темуОтветить на тему  [ Сообщений: 5 ] 
Вы не можете начинать темы
Вы не можете отвечать на сообщения
Вы не можете редактировать свои сообщения
Вы не можете удалять свои сообщения