Правила форума

  • В этом разделе создание новых тем Запрещено.
  • Для создания новых тем пользуйтесь Корневым разделом DVD и HD фильмы.
Начать новую темуОтветить на тему  [ Сообщений: 3 ] 
Торрент файл
Размер: 4.81 GB • Зарегистрирован: 4 года 11 месяцев • Статус: Проверено
Скачан: 334 раза • Желающих скачать: 0 • Поблагодарили: 42 раза
 Раздают: 0  |  0 KB/s  ]   Качают: 0  |  0 KB/s  ] 
 Полного источника не было 1 месяц 11 дней 
Сообщения
 Добавлено: 2011-12-12 21:51
Аватара пользователя
Стаж: 4 года 11 месяцев
Сообщений: 24
Спасибок: 356
Темный рыцарь / The Dark Knight

Изображение



Год выхода: 2008
Страна: США

Жанр: триллер, драма, детектив, боевик
Продолжительность: 2:32:13
Перевод: Профессиональный (полное дублирование)

Режиссер: Кристофер Нолан
Сценарий: Кристофер Нолан, Джонатан Нолан, Дэвид С. Гойер, ...
Продюсер: Кристофер Нолан, Лорни Орлинз, Чарльз Ровен, ...
Оператор: Уолли Пфистер
Композитор: Джеймс Ньютон Ховард, Ханс Циммер

В ролях: Кристиан Бэйл, Гэри Олдман, Аарон Экхарт, Майкл Кейн, Хит Леджер, Мэгги Джилленхаал, Морган Фримэн, Киллиан Мерфи

Описание: Бэтмен поднимает ставки в войне с криминалом. С помощью лейтенанта Джима Гордона и прокурора Харви Дента он намерен очистить улицы от преступности, отравляющей город. Сотрудничество оказывается эффективным, но скоро они обнаружат себя посреди хаоса, развязанного восходящим криминальным гением, известным испуганным горожанам под именем Джокер.

Изображение

Pаздача группы:Изображение

Качество: BDRip 720p
Формат: AVC
Видео: MPEG4 Video (H264) 1280x720 23.98fps
Аудио 1: Dolby AC3 48000Hz 6ch 448 Kbps
Аудио 2: Dolby AC3 48000Hz 6ch 640 Kbps

MediaInfo
General
Unique ID : 206613981439158712453693476650034191095 (0x9B7067C6DEDF31BC95496725A044DAF7)
Complete name : E:\Download\The Dark Knight.mkv
Format : Matroska
Format version : Version 2
File size : 4.81 GiB
Duration : 2h 32mn
Overall bit rate : 4 527 Kbps
Movie name : The Dark Knight
Encoded date : UTC 2010-02-04 01:07:03
Writing application : mkvmerge v3.0.0 ('Hang up your Hang-Ups') built on Dec 12 2009 15:20:35
Writing library : libebml v0.7.9 + libmatroska v0.8.1
Attachment : Yes

Video
ID : 1
Format : AVC
Format/Info : Advanced Video Codec
Format profile : High@L4.1
Format settings, CABAC : Yes
Format settings, ReFrames : 9 frames
Codec ID : V_MPEG4/ISO/AVC
Duration : 2h 32mn
Bit rate : 3 349 Kbps
Width : 1 280 pixels
Height : 720 pixels
Display aspect ratio : 16:9
Frame rate : 23.976 fps
Color space : YUV
Chroma subsampling : 4:2:0
Bit depth : 8 bits
Scan type : Progressive
Bits/(Pixel*Frame) : 0.152
Stream size : 3.56 GiB (74%)
Title : The Dark Knight
Writing library : x264 core 84 r1416kGIT fcf70c2
Encoding settings : cabac=1 / ref=9 / deblock=1:-2:-2 / analyse=0x3:0x133 / me=umh / subme=9 / psy=1 / psy_rd=1.2:0.0 / mixed_ref=1 / me_range=64 / chroma_me=1 / trellis=2 / 8x8dct=1 / cqm=0 / deadzone=21,11 / fast_pskip=0 / chroma_qp_offset=-2 / threads=9 / sliced_threads=0 / nr=0 / decimate=1 / mbaff=0 / constrained_intra=0 / bframes=16 / b_pyramid=2 / b_adapt=2 / b_bias=0 / direct=1 / wpredb=1 / wpredp=2 / keyint=250 / keyint_min=25 / scenecut=40 / intra_refresh=0 / rc_lookahead=60 / rc=crf / mbtree=0 / crf=20.0 / qcomp=0.60 / qpmin=10 / qpmax=51 / qpstep=4 / vbv_maxrate=50000 / vbv_bufsize=50000 / ip_ratio=1.40 / pb_ratio=1.30 / aq=1:1.20
Language : English
Default : No
Forced : No

Audio #1
ID : 2
Format : AC-3
Format/Info : Audio Coding 3
Mode extension : CM (complete main)
Codec ID : A_AC3
Duration : 2h 32mn
Bit rate mode : Constant
Bit rate : 448 Kbps
Channel(s) : 6 channels
Channel positions : Front: L C R, Side: L R, LFE
Sampling rate : 48.0 KHz
Bit depth : 16 bits
Compression mode : Lossy
Stream size : 488 MiB (10%)
Title : DD 5.1 48 KHz 448 kbps[Dub]
Language : Russian
Default : Yes
Forced : No

Audio #2
ID : 3
Format : AC-3
Format/Info : Audio Coding 3
Mode extension : CM (complete main)
Codec ID : A_AC3
Duration : 2h 32mn
Bit rate mode : Constant
Bit rate : 640 Kbps
Channel(s) : 6 channels
Channel positions : Front: L C R, Side: L R, LFE
Sampling rate : 48.0 KHz
Bit depth : 16 bits
Compression mode : Lossy
Stream size : 697 MiB (14%)
Title : DD 5.1 48 KHz 640 kbps[Original]
Language : English
Default : No
Forced : No

Text #1
ID : 4
Format : UTF-8
Codec ID : S_TEXT/UTF8
Codec ID/Info : UTF-8 Plain Text
Language : Russian
Default : No
Forced : No

Text #2
ID : 5
Format : UTF-8
Codec ID : S_TEXT/UTF8
Codec ID/Info : UTF-8 Plain Text
Title : BD CEE
Language : Russian
Default : No
Forced : No

Text #3
ID : 6
Format : UTF-8
Codec ID : S_TEXT/UTF8
Codec ID/Info : UTF-8 Plain Text
Language : English
Default : No
Forced : No

Menu
00:00:00.000 : en:Robbery Gone Stranger
00:06:23.967 : en:Intimidate Mode
00:10:36.261 : en:Unknown Limits
00:13:52.582 : en:Last Game in Town
00:17:54.198 : en:Protector's Mantle
00:21:39.340 : en:Kill the Batman
00:26:10.027 : en:Hong Kong Holiday
00:29:36.274 : en:Why So Serious?
00:31:42.484 : en:Landing Lau
00:37:49.058 : en:Men of Their Word
00:43:34.070 : en:Hero With a Face
00:46:39.547 : en:Somebody With Access
00:48:57.768 : en:Tonight's Entertainment
00:53:19.446 : en:Watch the World Burn
00:57:15.641 : en:Your Plan Is Blackmail
00:59:26.354 : en:Dishonor Guard
01:03:59.627 : en:No Rules
01:08:23.558 : en:Right Choice
01:10:48.327 : en:I Am the Batman
01:14:24.919 : en:Trip to County
01:18:05.639 : en:Bat-Pod Faceoff
01:22:22.437 : en:We Got Him
01:24:48.583 : en:Good Cop, Bad Cop
01:30:48.443 : en:Two-Way Race
01:34:04.973 : en:Burned Down
01:39:57.783 : en:Harvey Two-Face
01:42:05.494 : en:Better Class of Criminal
01:44:59.919 : en:Watch Out
01:47:00.873 : en:Agent of Chaos
01:51:09.913 : en:Hospital Boom
01:54:14.639 : en:Too Much Power
01:57:04.017 : en:Unlucky
02:00:14.249 : en:Ferry Scarry
02:03:37.577 : en:Prewitt Building Siege
02:09:07.615 : en:Verge of Fireworks
02:12:27.314 : en:Battle for Gotham's Soul
02:15:22.781 : en:One Pointing the Gun
02:19:58.682 : en:Dark Knight
02:24:26.658 : en:End Credits


Свернуть
Скриншоты
Изображение
Изображение
Изображение
Изображение
Изображение

Свернуть
Не в сети
Профиль  
 Добавлено: 2012-10-12 15:45 (спустя 9 месяцев)
Аватара пользователя
Стаж: 8 лет 6 месяцев
Сообщений: 4
на английском есть этот фильм???!!
Не в сети
Профиль  
 Добавлено: 2012-10-12 16:04 (спустя 18 минут)
Модератор релиз-группы
Аватара пользователя
Стаж: 9 лет 1 месяц
Возраст: 97
Сообщений: 11659
Спасибок: 6530
Лайков: 269

EagleAss:

на английском есть
а чё вторая дорога там китайская ? :-D
Cкрытый текст

MediaInfo:

Audio #2
ID : 3
Format : AC-3
Format/Info : Audio Coding 3
Mode extension : CM (complete main)
Codec ID : A_AC3
Duration : 2h 32mn
Bit rate mode : Constant
Bit rate : 640 Kbps
Channel(s) : 6 channels
Channel positions : Front: L C R, Side: L R, LFE
Sampling rate : 48.0 KHz
Bit depth : 16 bits
Compression mode : Lossy
Stream size : 697 MiB (14%)
Title : DD 5.1 48 KHz 640 kbps[Original]
Language : English
Default : No
Forced : No
Свернуть
_________________
Изображение
Не в сети
Профиль  
Начать новую темуОтветить на тему  [ Сообщений: 3 ] 
Вы не можете начинать темы
Вы не можете отвечать на сообщения
Вы не можете редактировать свои сообщения
Вы не можете удалять свои сообщения