Правила форума

  • В этом разделе создание новых тем Запрещено.
  • Для создания новых тем пользуйтесь Корневым разделом DVD и HD фильмы.
Начать новую темуОтветить на тему  [ Сообщений: 4 ] 
Торрент файл
Размер: 7.76 GB • Зарегистрирован: 4 года 4 месяца • Статус: Проверено
Скачан: 511 раз • Желающих скачать: 0 • Поблагодарили: 80 раз
 Раздают: 1  |  0 KB/s  ]   Качают: 0  |  0 KB/s  ] 
Сообщения
 Добавлено: 2012-07-31 22:06
Модератор
Аватара пользователя
Стаж: 6 лет 10 месяцев
Возраст: 33
Сообщений: 5908
Спасибок: 61261
Лайков: 3540
Изображение

Изображение


Год выпуска: 2008
Страна: США, Великобритания
Слоган: «Добро пожаловать в мир Хаоса!»
Жанр: фантастика, боевик, триллер, криминал
Продолжительность: 02:32:13
Перевод: Профессиональный (полное дублирование)
Режиссер: Кристофер Нолан
Сценарий: Кристофер Нолан, Джонатан Нолан, Дэвид С. Гойер, Боб Кейн
Продюсер: Кристофер Нолан, Лорни Орлинз, Чарльз Ровен, Эмма Томас, Кевин Де Ла Ной
Оператор: Уолли Пфистер
Композитор: Джеймс Ньютон Ховард, Ханс Циммер
В ролях: Кристиан Бэйл, Хит Леджер, Аарон Экхарт, Мэгги Джилленхол, Гари Олдман, Майкл Кейн, Морган Фриман, Чин Хань, Нестор Карбонелл, Эрик Робертс, Ричи Костер, Моника Карнен
Бюджет: $185 000 000
Сборы в США: $533 345 358
Сборы в России: $8 589 100
Сборы в мире: $1 001 921 825
Описание: Бэтмен поднимает ставки в войне с криминалом. С помощью лейтенанта Джима Гордона и прокурора Харви Дента он намерен очистить улицы от преступности, отравляющей город. Сотрудничество оказывается эффективным, но скоро они обнаружат себя посреди хаоса, развязанного восходящим криминальным гением, известным испуганным горожанам под именем Джокер.
Изображение
MPAA: Изображение
Мировая премьера: 14 июля 2008
Релиз на DVD: 9 декабря 2008, «Юниверсал Пикчерс Рус»
Релиз на Blu-ray: 27 января 2009, «Юниверсал Пикчерс Рус»
Раздача группы: Изображение
Качество: BDRip, 1080p | IMAX
Формат: Matroska
Видео: AVC; 1920x1080 (16:9); 6065 Kbps; 23,976 fps; 0,122 bit/pixel
Аудио №1: Russian; AC3; 448 Kbps; CBR; 6 ch
Аудио №2: AC3; 640 Kbps; CBR; 6 ch
Оригинал
Субтитры №1: Russian
Субтитры №2:

"Знаете ли Вы, что..."
  • Новой игрушкой Бэтмена/Брюса Уэйна, помимо Batpod(а) становится новая модель машины Lamborghini. Обычно Брюс в виде своего Альтер Эго спасает жителей Готэма на Бэтмобиле, а теперь пришло время прокатиться и на новой спортивной машине Lamborghini Murcielago LP640. В особенности этой машины входит питание от 640 лошадиных сил, двенадцатицилиндровый двигатель, способный разгоняться до 211 миль в час. Кстати, это не первая Lamborghini Брюса Уэйна, в 2005 году, в картине «Бэтмен: Начало» дебютировала машина Lamborghini Murcielago Roadster.
Свернуть
MediaInfo
Общее
Уникальный идентификатор : 232060931361700805721115621346247035189 (0xAE954F461635C87BA640AB961945C935)
Полное имя : The.Dark.Knight.2008.BDRip.1080p.Rus.Eng.mkv
Формат : Matroska
Версия формата : Version 2
Размер файла : 7,76 Гбайт
Продолжительность : 2 ч. 32 м.
Общий поток : 7298 Кбит/сек
Название фильма : Темный рыцарь / The Dark Knight (2008) | IMAX
Дата кодирования : UTC 2012-05-27 21:16:16
Программа кодирования : mkvmerge v5.5.0 ('Healer') built on Apr 6 2012 21:43:24
Библиотека кодирования : libebml v1.2.3 + libmatroska v1.3.0

Видео
Идентификатор : 1
Формат : AVC
Формат/Информация : Advanced Video Codec
Профиль формата : High@L4.1
Параметр CABAC формата : Да
Параметр ReFrames формата : 4 кадра
Идентификатор кодека : V_MPEG4/ISO/AVC
Продолжительность : 2 ч. 32 м.
Битрейт : 6210 Кбит/сек
Ширина : 1920 пикселей
Высота : 1080 пикселей
Соотношение сторон : 16:9
Частота кадров : 23,976 кадра/сек
Цветовое пространство : YUV
Субдискретизация насыщенности : 4:2:0
Битовая глубина : 8 бит
Тип развёртки : Прогрессивная
Бит/(Пиксели*Кадры) : 0.125
Размер потока : 6,45 Гбайт (83%)
Заголовок : Release by AlexKa
Библиотека кодирования : x264 core 125 r2200 999b753
Настройки программы : cabac=1 / ref=4 / deblock=1:0:0 / analyse=0x3:0x133 / me=umh / subme=11 / psy=1 / psy_rd=1.00:0.00 / mixed_ref=1 / me_range=32 / chroma_me=1 / trellis=2 / 8x8dct=1 / cqm=0 / deadzone=21,11 / fast_pskip=0 / chroma_qp_offset=-2 / threads=12 / lookahead_threads=2 / sliced_threads=0 / nr=0 / decimate=0 / interlaced=0 / bluray_compat=0 / constrained_intra=0 / bframes=5 / b_pyramid=2 / b_adapt=2 / b_bias=0 / direct=3 / weightb=1 / open_gop=0 / weightp=2 / keyint=240 / keyint_min=23 / scenecut=40 / intra_refresh=0 / rc_lookahead=60 / rc=2pass / mbtree=1 / bitrate=6210 / ratetol=1.0 / qcomp=0.60 / qpmin=0 / qpmax=69 / qpstep=4 / cplxblur=20.0 / qblur=0.5 / ip_ratio=1.40 / aq=1:1.00
Язык : English

Аудио #1
Идентификатор : 2
Формат : AC-3
Формат/Информация : Audio Coding 3
Расширение режима : CM (complete main)
Идентификатор кодека : A_AC3
Продолжительность : 2 ч. 32 м.
Вид битрейта : Постоянный
Битрейт : 448 Кбит/сек
Каналы : 6 каналов
Расположение каналов : Front: L C R, Side: L R, LFE
Частота : 48,0 КГц
Битовая глубина : 16 бит
Метод сжатия : С потерями
Размер потока : 488 Мбайт (6%)
Заголовок : Rus
Язык : Russian

Аудио #2
Идентификатор : 3
Формат : AC-3
Формат/Информация : Audio Coding 3
Расширение режима : CM (complete main)
Идентификатор кодека : A_AC3
Продолжительность : 2 ч. 32 м.
Вид битрейта : Постоянный
Битрейт : 640 Кбит/сек
Каналы : 6 каналов
Расположение каналов : Front: L C R, Side: L R, LFE
Частота : 48,0 КГц
Битовая глубина : 16 бит
Метод сжатия : С потерями
Размер потока : 697 Мбайт (9%)
Заголовок : Eng
Язык : English

Текст #1
Идентификатор : 4
Формат : UTF-8
Идентификатор кодека : S_TEXT/UTF8
Идентификатор кодека/Информация : UTF-8 Plain Text
Заголовок : Rus
Язык : Russian

Текст #2
Идентификатор : 5
Формат : UTF-8
Идентификатор кодека : S_TEXT/UTF8
Идентификатор кодека/Информация : UTF-8 Plain Text
Заголовок : Eng
Язык : English

Меню
00:00:00.000 : :Chapter 01
00:06:23.966 : :Chapter 02
00:10:36.260 : :Chapter 03
00:13:52.581 : :Chapter 04
00:17:54.198 : :Chapter 05
00:21:39.339 : :Chapter 06
00:26:10.026 : :Chapter 07
00:29:36.274 : :Chapter 08
00:31:42.483 : :Chapter 09
00:37:49.058 : :Chapter 10
00:43:34.069 : :Chapter 11
00:46:39.546 : :Chapter 12
00:48:57.768 : :Chapter 13
00:53:19.446 : :Chapter 14
00:57:15.640 : :Chapter 15
00:59:26.354 : :Chapter 16
01:03:59.627 : :Chapter 17
01:08:23.557 : :Chapter 18
01:10:48.327 : :Chapter 19
01:14:24.918 : :Chapter 20
01:18:05.639 : :Chapter 21
01:22:22.437 : :Chapter 22
01:24:48.583 : :Chapter 23
01:30:48.442 : :Chapter 24
01:34:04.972 : :Chapter 25
01:39:57.783 : :Chapter 26
01:42:05.494 : :Chapter 27
01:44:59.918 : :Chapter 28
01:47:00.872 : :Chapter 29
01:51:09.913 : :Chapter 30
01:54:14.639 : :Chapter 31
01:57:04.017 : :Chapter 32
02:00:14.248 : :Chapter 33
02:03:37.576 : :Chapter 34
02:09:07.614 : :Chapter 35
02:12:27.314 : :Chapter 36
02:15:22.781 : :Chapter 37
02:19:58.681 : :Chapter 38
02:24:26.658 : :Chapter 39
02:32:13.207 : :Chapter 40

Свернуть

Скриншоты

Изображение
Изображение
Изображение
Свернуть
_________________
ИзображениеИзображение Изображение
Изображение
 tany1984 и di-ys1 нравится это.
Не в сети
Профиль  
 Добавлено: 2012-08-06 17:56 (спустя 5 дней)
Top-seeder
Аватара пользователя
Стаж: 7 лет 2 месяца
Сообщений: 2144
Спасибок: 571
че значит IMAX?
Не в сети
Профиль  
 Добавлено: 2012-08-06 18:04 (спустя 7 минут)
Аватара пользователя
Стаж: 5 лет 6 месяцев
Возраст: 26
Сообщений: 47
Наверное в высоком разрешения
_________________
Меня зовут Санёк и это знает каждый!
Не в сети
Профиль  
 Добавлено: 2012-11-14 10:27 (спустя 3 месяца 7 дней)
Стаж: 8 лет 2 месяца
Сообщений: 37
Спасибок: 27

ДжекДениелс:

че значит IMAX?

Это значит несколько моментов в фильме снималось на IMAX камеру. Эта версия также вышла на блюрике!
Не в сети
Профиль  
Начать новую темуОтветить на тему  [ Сообщений: 4 ] 
Вы не можете начинать темы
Вы не можете отвечать на сообщения
Вы не можете редактировать свои сообщения
Вы не можете удалять свои сообщения