Правила форума

  • В этом разделе создание новых тем Запрещено.
  • Для создания новых тем пользуйтесь Корневым разделом DVD и HD фильмы.
Начать новую темуОтветить на тему  [ Сообщений: 5 ] 
Торрент файл
Размер: 32.75 GB • Зарегистрирован: 4 года • Статус: Проверено
Скачан: 106 раз • Желающих скачать: 0 • Поблагодарили: 33 раза
 Раздают: 0  |  0 KB/s  ]   Качают: 0  |  0 KB/s  ] 
 Полного источника не было 9 часов 
Сообщения
 Добавлено: 2012-11-19 21:12
Пользователь забанен
Top-releaser
Аватара пользователя
Стаж: 4 года 1 месяц
Возраст: 33
Сообщений: 268
Спасибок: 3693
Лайков: 9
Темный рыцарь: Возрождение легенды
The Dark Knight Rises

Изображение

Год выпуска: 2012
Страна: США, Великобритания
Жанр: фантастика, боевик, триллер
Продолжительность: 02:44:32
Перевод: Дублированное
Оригинальная аудиодорожка: английский
Субтитры: Английские, русские, французские, португальские, испанскиe

Режиссёр: Кристофер Нолан

В ролях: Кристиан Бэйл, Майкл Кейн, Гари Олдман, Морган Фриман, Джозеф Гордон-Левитт, Том Харди, Энн Хэтэуэй, Марион Котийяр, Мэтью Модайн, Лиам Нисон

Описание: Восемь лет назад Бэтмен растворился в ночи, превратившись из героя в беглеца. Приняв на себя вину за смерть прокурора Харви Дента, Темный рыцарь пожертвовал всем. Вместе с комиссаром Гордоном они решили, что так будет лучше для всех. Пока преступность была раздавлена антикриминальным актом Дента, ложь действовала.

Но с появлением хитрой воровки с загадочным прошлым всё меняется. Тем не менее, еще опаснее становится появление террориста Бэйна, чье лицо закрыто маской. Он разворачивает в Готэме чудовищную деятельность, вынуждая Брюса Уэйна выйти из импровизированного изгнания. Однако даже надев свой костюм, Бэтмен может проиграть Бэйну.

Качество: Blu-Ray Remux (1080p)
Формат: MKV
Видео кодек: x264
Аудио кодек: AC3 (Dolby Digital)
Видео: MPEG-4 AVC, 24.0 Мбит/с, 1920x1080,
Аудио Русский (AC3, 6 ch, 384 Кбит/с), английский (DTS-HD MA, 6 ch, 4018 Кбит/с)
Изображение User Rating: 8.595 (64 937)
Изображение User Rating: 8.80 (418 357)
Дополнительная информация:
Бюджет: $250 000 000
Сборы в США: $447 817 857
Сборы в России: $17 143 190
Сборы в мире: $1 078 617 857
Мировая премьера: 16 июля 2012
Релиз на DVD: 28 ноября 2012, «CP Дистрибуция»
Релиз на Blu-ray: 28 ноября 2012, «CP Дистрибуция»
MediaInfo
General
Unique ID : 239024451638939254850601967934497633902 (0xB3D26F54A339500599761970CDB0366E)
Complete name : F:\Файлы\Фильмы\The Dark Knight Rises 2012 1080p Blu-ray Remux AVC DTS-HD MA 5.1.mkv
Format : Matroska
Format version : Version 2
File size : 32.8 GiB
Duration : 2h 44mn
Overall bit rate mode : Variable
Overall bit rate : 28.5 Mbps
Movie name : Denils
Encoded date : UTC 2012-11-18 11:58:40
Writing application : mkvmerge v4.0.0 ('The Stars were mine') сборка от Jun 6 2010 16:18:42
Writing library : libebml v1.0.0 + libmatroska v1.0.0

Video
ID : 1
Format : AVC
Format/Info : Advanced Video Codec
Format profile : High@L4.1
Format settings, CABAC : Yes
Format settings, ReFrames : 2 frames
Format settings, GOP : M=1, N=10
Codec ID : V_MPEG4/ISO/AVC
Duration : 2h 44mn
Bit rate mode : Variable
Bit rate : 26.0 Mbps
Width : 1 920 pixels
Height : 1 080 pixels
Display aspect ratio : 16:9
Frame rate mode : Constant
Frame rate : 23.976 fps
Color space : YUV
Chroma subsampling : 4:2:0
Bit depth : 8 bits
Scan type : Progressive
Bits/(Pixel*Frame) : 0.523
Stream size : 29.9 GiB (91%)
Language : English
Default : No
Forced : No

Audio #1
ID : 2
Format : AC-3
Format/Info : Audio Coding 3
Mode extension : CM (complete main)
Format settings, Endianness : Big
Codec ID : A_AC3
Duration : 2h 44mn
Bit rate mode : Constant
Bit rate : 384 Kbps
Channel(s) : 6 channels
Channel positions : Front: L C R, Side: L R, LFE
Sampling rate : 48.0 KHz
Bit depth : 16 bits
Compression mode : Lossy
Stream size : 452 MiB (1%)
Language : Russian
Default : Yes
Forced : Yes

Audio #2
ID : 3
Format : DTS
Format/Info : Digital Theater Systems
Format profile : MA / Core
Codec ID : A_DTS
Duration : 2h 44mn
Bit rate mode : Variable
Bit rate : 1 561 Kbps / 1 510 Kbps
Channel(s) : 6 channels
Channel positions : Front: L C R, Side: L R, LFE
Sampling rate : 48.0 KHz
Bit depth : 24 bits
Compression mode : Lossless / Lossy
Language : English
Default : No
Forced : No

Text #1
ID : 4
Format : PGS
Codec ID : S_HDMV/PGS
Codec ID/Info : The same subtitle format used on BDs/HD-DVDs
Title : SDH
Language : English
Default : No
Forced : No

Text #2
ID : 5
Format : PGS
Codec ID : S_HDMV/PGS
Codec ID/Info : The same subtitle format used on BDs/HD-DVDs
Language : French
Default : No
Forced : No

Text #3
ID : 6
Format : PGS
Codec ID : S_HDMV/PGS
Codec ID/Info : The same subtitle format used on BDs/HD-DVDs
Title : Brazilian Portuguese
Language : Portuguese
Default : No
Forced : No

Text #4
ID : 7
Format : PGS
Codec ID : S_HDMV/PGS
Codec ID/Info : The same subtitle format used on BDs/HD-DVDs
Title : Latin American Spanish
Language : Spanish
Default : No
Forced : No

Text #5
ID : 8
Format : UTF-8
Codec ID : S_TEXT/UTF8
Codec ID/Info : UTF-8 Plain Text
Language : Russian
Default : Yes
Forced : Yes

Menu
00:00:00.000 : en:00:00:00.000
00:09:02.834 : en:00:09:02.834
00:19:08.522 : en:00:19:08.522
00:30:15.856 : en:00:30:15.856
00:41:08.800 : en:00:41:08.800
00:51:09.525 : en:00:51:09.525
01:00:29.668 : en:01:00:29.668
01:10:04.033 : en:01:10:04.033
01:20:13.475 : en:01:20:13.475
01:31:00.580 : en:01:31:00.580
01:39:24.292 : en:01:39:24.292
01:48:58.490 : en:01:48:58.490
02:00:21.589 : en:02:00:21.589
02:10:47.673 : en:02:10:47.673
02:19:12.636 : en:02:19:12.636
02:30:14.631 : en:02:30:14.631
02:36:50.526 : en:02:36:50.526

Свернуть
Скриншоты
Изображение
Изображение
Изображение
Свернуть
_________________
Изображение
Не в сети
Профиль  
 Добавлено: 2012-11-20 19:15 (спустя 22 часа)
Аватара пользователя
Стаж: 7 лет 5 месяцев
Возраст: 34
Сообщений: 241
Спасибок: 1
Лайков: 2
На Blu-Ray будит ?
Не в сети
Профиль  
 Добавлено: 2012-11-20 19:53 (спустя 37 минут)
Top-seeder
Стаж: 9 лет 1 месяц
Сообщений: 748
Спасибок: 636
Лайков: 3
Согласен, нахрена вообще ремуксы не сжатые делают - типа одним файликом?, лучше сразу блюрей выкладывайте..
Не в сети
Профиль  
 Добавлено: 2012-11-21 20:48 (спустя 1 день)
Аватара пользователя
Стаж: 8 лет 1 месяц
Возраст: 21
Сообщений: 42
Спасибок: 30
Вообщем ждем Blu-Ray)
_________________
Изображение
Не в сети
Профиль  
 Добавлено: 2012-12-09 14:52 (спустя 17 дней)
Аватара пользователя
Стаж: 6 лет 8 месяцев
Сообщений: 82
так это блю-рей
Не в сети
Профиль  
Начать новую темуОтветить на тему  [ Сообщений: 5 ] 
Вы не можете начинать темы
Вы не можете отвечать на сообщения
Вы не можете редактировать свои сообщения
Вы не можете удалять свои сообщения