Правила форума

  • В этом разделе создание новых тем Запрещено.
  • Для создания новых тем пользуйтесь Корневым разделом DVD и HD фильмы.
Начать новую темуОтветить на тему  [ Сообщений: 7 ] 
Торрент файл
Размер: 3.57 GB • Зарегистрирован: 3 года 2 месяца • Статус: T Временный релиз
Скачан: 102 раза • Желающих скачать: 0 • Поблагодарили: 31 раз
 Раздают: 0  |  0 KB/s  ]   Качают: 0  |  0 KB/s  ] 
 Полного источника не было 1 день 10 часов 
Сообщения
 Добавлено: 2013-09-21 09:26
DVD Release Group
Аватара пользователя
Стаж: 7 лет 1 месяц
Сообщений: 3565
Спасибок: 247518
Лайков: 1020
Тепло наших тел

Warm Bodies


Изображение


Год выпуска: 2013
Страна: США
Жанр: Ужасы, мелодрама, комедия
Продолжительность: 01:37:45
Перевод: Профессиональный (полное дублирование)
Субтитры: Русские, английские
Режиссер: Джонатан Левин
В ролях: Николас Холт, Тереза Палмер, Аналей Типтон, Роб Кордри, Дэйв Франко, Джон Малкович, Кори Хардрикт, Дэниэл Риндресс-Кей, Винсент Леклерк, Клиффорд ЛеДюк-Вайанкур
Описание: Мир поражен чумой и стоит на грани вымирания. Покойники ходят по земле и норовят употребить в пищу живых, которые, оставшись в катастрофическом меньшинстве, с трудом держат оборону. Перемены начинаются, когда один зомби, чье имя при жизни начиналось на «Р», спасает девушку вместо того, чтобы ее съесть. Дружба, завязавшаяся между представителями враждующих сторон, грозит обоим самыми нехорошими последствиями. Но Р и Джули, сами того не подозревая, держат в руках простой и единственный ключ к спасению гибнущего мира.
Изображение
Качество: BDRip 720p
Формат: MKV
Видео кодек: H.264
Аудио кодек: AC3, MP3
Видео: 1280x534 23.98fps 4681kbps
Аудио:
Audio Rus: AC3 48kHz 2ch 320kbps
Audio Eng: MP3 48kHz 2ch 128kbps
"MediaInfo"
Формат : Matroska
Версия формата : Version 2
Размер файла : 3,57 Гбайт
Продолжительность : 1 ч. 37 м.
Режим общего битрейта : Переменный
Общий поток : 5233 Кбит/сек
Название фильма : -=Leonardo 59=-
Дата кодирования : UTC 2013-09-21 04:46:11
Программа кодирования : mkvmerge v5.2.0 ('I can't explain') built on Dec 18 2011 18:12:03
Библиотека кодирования : libebml v1.2.3 + libmatroska v1.3.0

Видео
Идентификатор : 1
Формат : AVC
Формат/Информация : Advanced Video Codec
Профиль формата : High@L4.1
Параметр CABAC формата : Да
Параметр ReFrames формата : 8 кадров
Идентификатор кодека : V_MPEG4/ISO/AVC
Продолжительность : 1 ч. 37 м.
Битрейт : 4681 Кбит/сек
Ширина : 1280 пикселей
Высота : 534 пикселя
Соотношение сторон : 2,40:1
Частота кадров : 23,976 кадра/сек
Цветовое пространство : YUV
Субдискретизация насыщенности : 4:2:0
Битовая глубина : 8 бит
Тип развёртки : Прогрессивная
Бит/(Пиксели*Кадры) : 0.286
Размер потока : 3,20 Гбайт (89%)
Библиотека кодирования : x264 core 125 r2208 d9d2288
Настройки программы : cabac=1 / ref=8 / deblock=1:-3:-2 / analyse=0x3:0x133 / me=umh / subme=11 / psy=1 / psy_rd=1.00:0.10 / mixed_ref=1 / me_range=32 / chroma_me=1 / trellis=2 / 8x8dct=1 / cqm=0 / deadzone=21,11 / fast_pskip=0 / chroma_qp_offset=-3 / threads=12 / lookahead_threads=2 / sliced_threads=0 / nr=0 / decimate=1 / interlaced=0 / bluray_compat=0 / constrained_intra=0 / bframes=8 / b_pyramid=2 / b_adapt=2 / b_bias=0 / direct=1 / weightb=1 / open_gop=0 / weightp=2 / keyint=250 / keyint_min=23 / scenecut=40 / intra_refresh=0 / rc=crf / mbtree=0 / crf=18.0 / qcomp=0.60 / qpmin=0 / qpmax=69 / qpstep=4 / ip_ratio=1.40 / pb_ratio=1.30 / aq=2:1.00
Язык : English
Default : Да
Forced : Нет

Аудио #1
Идентификатор : 2
Формат : AC-3
Формат/Информация : Audio Coding 3
Расширение режима : CM (complete main)
Идентификатор кодека : A_AC3
Продолжительность : 1 ч. 37 м.
Вид битрейта : Постоянный
Битрейт : 320 Кбит/сек
Каналы : 2 канала
Расположение каналов : Front: L R
Частота : 48,0 КГц
Битовая глубина : 16 бит
Метод сжатия : С потерями
Размер потока : 224 Мбайт (6%)
Язык : Russian
Default : Да
Forced : Нет

Аудио #2
Идентификатор : 3
Формат : MPEG Audio
Версия формата : Version 1
Профиль формата : Layer 3
Режим : Joint stereo
Расширение режима : MS Stereo
Идентификатор кодека : A_MPEG/L3
Идентификатор кодека/Подсказка : MP3
Продолжительность : 1 ч. 37 м.
Вид битрейта : Переменный
Битрейт : 128 Кбит/сек
Каналы : 2 канала
Частота : 48,0 КГц
Метод сжатия : С потерями
Размер потока : 89,5 Мбайт (2%)
Библиотека кодирования : LAME3.99r
Настройки программы : -m j -V 4 -q 2 -lowpass 17 -b 128
Язык : English
Default : Нет
Forced : Нет

Текст #1
Идентификатор : 4
Формат : UTF-8
Идентификатор кодека : S_TEXT/UTF8
Идентификатор кодека/Информация : UTF-8 Plain Text
Заголовок : Notabenoid
Язык : Russian
Default : Нет
Forced : Нет

Текст #2
Идентификатор : 5
Формат : PGS
Режим смешивания : zlib
Идентификатор кодека : S_HDMV/PGS
Идентификатор кодека/Информация : The same subtitle format used on BDs/HD-DVDs
Язык : English
Default : Нет
Forced : Нет

Текст #3
Идентификатор : 6
Формат : PGS
Режим смешивания : zlib
Идентификатор кодека : S_HDMV/PGS
Идентификатор кодека/Информация : The same subtitle format used on BDs/HD-DVDs
Заголовок : SDH
Язык : English
Default : Нет
Forced : Нет

Меню
00:00:00.000 : en:Chapter 00
00:06:39.857 : en:Chapter 01
00:12:24.201 : en:Chapter 02
00:19:24.580 : en:Chapter 03
00:24:22.919 : en:Chapter 04
00:31:17.625 : en:Chapter 05
00:40:52.408 : en:Chapter 06
00:45:32.563 : en:Chapter 07
00:49:56.284 : en:Chapter 08
00:55:44.090 : en:Chapter 09
01:02:25.491 : en:Chapter 10
01:08:49.875 : en:Chapter 11
01:14:08.861 : en:Chapter 12
01:17:27.392 : en:Chapter 13
01:24:00.702 : en:Chapter 14
01:30:30.758 : en:Chapter 15
Свернуть

"Скриншоты"
Изображение
Изображение
Изображение
Свернуть

Раздача группы:
Изображение
Не в сети
Профиль  
 Добавлено: 2013-09-21 12:36 (спустя 3 часа)
Аватара пользователя
Стаж: 4 года 4 месяца
Возраст: 33
Сообщений: 178
Лайков: 3
качает толпа, а раздает один и тот срулил ((((( ГДЕ РАЗДАЧА??????
Не в сети
Профиль  
 Добавлено: 2013-09-21 14:19 (спустя 1 час 42 минуты)
Аватара пользователя
Стаж: 7 лет 9 месяцев
Сообщений: 14
зачем выложил если не раздаешь!!!?????
Не в сети
Профиль  
 Добавлено: 2013-09-21 18:01 (спустя 3 часа)
Модератор
Аватара пользователя
Стаж: 8 лет 10 месяцев
Сообщений: 2743
Спасибок: 21518
Лайков: 338

Pyper:

зачем выложил если не раздаешь!!!?????
вот вот!!!
Не в сети
Профиль  
 Добавлено: 2013-09-21 19:11 (спустя 1 час 10 минут)
Аватара пользователя
Стаж: 4 года 5 месяцев
Возраст: 29
Сообщений: 17
Спасибок: 7
Я пол дня и вечера качаю не 1% не скачал раздавать думаете или закройте её нафиг !
Не в сети
Профиль  
 Добавлено: 2013-09-21 21:17 (спустя 2 часа 6 минут)
Аватара пользователя
Стаж: 4 года 10 месяцев
Сообщений: 82
Спасибок: 5
Лайков: 5
На tnc есть 720р, счас я попробую там скачать и тут встать. Сам с утра поставил качатьтся, тоже ждал чего-то
_________________
Изображение
Не в сети
Профиль  
 Добавлено: 2013-09-23 20:47 (спустя 1 день 23 часа)
Стаж: 5 лет 3 месяца
Сообщений: 150
Лайков: 2
Прикольный фильмец)
Не в сети
Профиль  
Начать новую темуОтветить на тему  [ Сообщений: 7 ] 
Вы не можете начинать темы
Вы не можете отвечать на сообщения
Вы не можете редактировать свои сообщения
Вы не можете удалять свои сообщения