Правила форума

  • В этом разделе создание новых тем Запрещено.
  • Для создания новых тем пользуйтесь Корневым разделом DVD и HD фильмы.
Начать новую темуОтветить на тему  [ Сообщений: 4 ] 
Торрент файл
Размер: 10.33 GB • Зарегистрирован: 5 лет 3 месяца • Статус: Проверено
Скачан: 83 раза • Желающих скачать: 0 • Поблагодарили: 29 раз
 Раздают: 0  |  0 KB/s  ]   Качают: 0  |  0 KB/s  ] 
 Полного источника не было 16 часов 
Сообщения
 Добавлено: 2011-08-15 14:44
Руководитель релиз-группы
Аватара пользователя
Стаж: 9 лет 1 месяц
Возраст: 28
Сообщений: 4244
Спасибок: 31992
Лайков: 32
Изображение

Терминатор 3: Восстание машин
Terminator 3: Rise of the Machines


«The Machines Will Rise.»

Год выпуска: 2003
Страна: Изображение Изображение Изображение США, Германия, Великобритания
Жанр: фантастика, боевик, триллер
Продолжительность: 01:49:09
Перевод: Профессиональный (полное дублирование) + Оригинал + Комментарии (английские) + Субтитры (русские - форсированные; английские - полные; немецкие - полные; немецкие - форсированные)

Режиссер: Джонатан Мостоу
Сценарий: Джеймс Кэмерон, Гэйл Энн Херд, Джон Д. Бранкато
Продюсер: Эндрю Дж. Вайна, Колин Уилсон, Марио Кассар
Оператор: Дон Бёрджесс
Композитор: Марко Белтрами

В ролях: Арнольд Шварценеггер, Ник Стал, Клер Дэйнс, Кристанна Локен, Дэвид Эндрюс, Марк Фамиглетти, Эрл Боэн, Мойра Харрис, Чоппер Бернет, Кристофер Лоуфорд

Описание: Прошло десять лет с тех пор, как Джон Коннор помог предотвратить Судный День и спасти человечество от массового уничтожения. Теперь ему 25, Коннор не живет «как все» — у него нет дома, нет кредитных карт, нет сотового телефона и никакой работы. Его существование нигде не зарегистрировано. Он не может быть прослежен системой Skynet — высокоразвитой сетью машин, которые когда-то попробовали убить его и развязать войну против человечества. Пока из теней будущего не появляется T-X — Терминатрикс, самый сложный киборг-убийца Skynet. Посланная назад сквозь время, чтобы завершить работу, начатую её предшественником, T-1000, эта машина так же упорна, как прекрасен её человеческий облик. Теперь единственная надежда Коннору выжить — Терминатор, его таинственный прежний убийца. Вместе они должны одержать победу над новыми технологиями T-X и снова предотвратить Судный День...

Раздача: Изображение

kinopoisk.ru: 6.607 (20 048)

Доп. информация
Бюджет: $200 000 000
Сборы в мире: $433 371 112
Сборы в США: $150 371 112
Мировая премьера: 30 июня 2003
Рейтинг R — Restricted. Подростки до 17 лет допускаются на фильм только в сопровождении одного из родителей
Изображение
Ограничение — до 17 лет требуется сопровождение родителя или взрослого опекуна (возраст может меняться в некоторых регионах). Данный рейтинг показывает, что оценочная комиссия заключила, что некоторый материал оценённого фильма предназначается для взрослых. Родители должны больше узнать о фильме прежде, чем взять на его просмотр детей. Рейтинг R также может быть назначен из-за используемого в фильме языка, темы, насилия, секса или изображения употребления наркотиков.
Свернуть
Свернуть

Качество: BDRip 1080p
Формат: Matroska
Видео: AVC, 1920x790 (2.43:1), 11400 kbits, 23,976 fps, 0.314 bit/pixel
Аудио #1: 48,0 kHz, AC3 Dolby Digital 5.1, 448 kb/s [DUB]
Аудио #2: 48,0 kHz, DTS 5.1, 1536 kb/s [ENG]
Аудио #3: 48,0 kHz, Vorbis 2.0, 192 kb/s [COMM]


MediaInfo
General
Unique ID : 243935017315398525004806267337198638779 (0xB7842CE93144C3AE9B1C581D456996BB)
Complete name : G:\films\Terminator.3.Rise.of.the.Machines.2003.1080p.BDRip[R.G.KiNOvNiNO].mkv
Format : Matroska
File size : 10.3 GiB
Duration : 1h 49mn
Overall bit rate : 13.6 Mbps
Encoded date : UTC 2009-05-21 12:32:35
Writing application : mkvmerge v2.7.0 ('Do It Again') built on Apr 15 2009 00:27:10
Writing library : libebml v0.7.7 + libmatroska v0.8.1

Video
ID : 1
Format : AVC
Format/Info : Advanced Video Codec
Format profile : High@L4.1
Format settings, CABAC : Yes
Format settings, ReFrames : 5 frames
Codec ID : V_MPEG4/ISO/AVC
Duration : 1h 49mn
Bit rate : 11.4 Mbps
Width : 1 920 pixels
Height : 790 pixels
Display aspect ratio : 2.40:1
Frame rate : 23.976 fps
Color space : YUV
Chroma subsampling : 4:2:0
Bit depth : 8 bits
Scan type : Progressive
Bits/(Pixel*Frame) : 0.314
Stream size : 8.49 GiB (82%)
Writing library : x264 core 67 r1148M 400740b
Encoding settings : cabac=1 / ref=5 / deblock=1:-3:-4 / analyse=0x3:0x113 / me=tesa / subme=9 / psy_rd=1.3:0.0 / mixed_ref=1 / me_range=32 / chroma_me=1 / trellis=2 / 8x8dct=1 / cqm=0 / deadzone=21,11 / chroma_qp_offset=-2 / threads=12 / nr=0 / decimate=0 / mbaff=0 / bframes=6 / b_pyramid=1 / b_adapt=2 / b_bias=0 / direct=3 / wpredb=1 / keyint=250 / keyint_min=25 / scenecut=40 / rc=2pass / bitrate=11405 / ratetol=1.0 / qcomp=0.70 / qpmin=10 / qpmax=51 / qpstep=4 / cplxblur=20.0 / qblur=0.5 / vbv_maxrate=38000 / vbv_bufsize=38000 / ip_ratio=1.30 / pb_ratio=1.20 / aq=1:0.80
Language : English

Audio #1
ID : 2
Format : AC-3
Format/Info : Audio Coding 3
Mode extension : CM (complete main)
Codec ID : A_AC3
Duration : 1h 49mn
Bit rate mode : Constant
Bit rate : 448 Kbps
Channel(s) : 6 channels
Channel positions : Front: L C R, Side: L R, LFE
Sampling rate : 48.0 KHz
Bit depth : 16 bits
Compression mode : Lossy
Stream size : 350 MiB (3%)
Title : AC3_5.1_448kbps
Language : Russian

Audio #2
ID : 3
Format : DTS
Format/Info : Digital Theater Systems
Codec ID : A_DTS
Duration : 1h 49mn
Bit rate mode : Constant
Bit rate : 1 510 Kbps
Channel(s) : 6 channels
Channel positions : Front: L C R, Side: L R, LFE
Sampling rate : 48.0 KHz
Bit depth : 24 bits
Compression mode : Lossy
Stream size : 1.15 GiB (11%)
Title : DTS_5.1_1536kbps
Language : English

Audio #3
ID : 4
Format : Vorbis
Format settings, Floor : 1
Codec ID : A_VORBIS
Duration : 1h 49mn
Bit rate mode : Constant
Bit rate : 96.0 Kbps
Channel(s) : 2 channels
Sampling rate : 48.0 KHz
Compression mode : Lossy
Stream size : 74.9 MiB (1%)
Title : Commentary I
Writing library : aoTuV b5c (UTC 2008-12-15)
Language : English

Audio #4
ID : 5
Format : Vorbis
Format settings, Floor : 1
Codec ID : A_VORBIS
Duration : 1h 49mn
Bit rate mode : Constant
Bit rate : 96.0 Kbps
Channel(s) : 2 channels
Sampling rate : 48.0 KHz
Compression mode : Lossy
Stream size : 74.9 MiB (1%)
Title : Commentary II
Writing library : aoTuV b5c (UTC 2008-12-15)
Language : English

Text #1
ID : 6
Format : UTF-8
Codec ID : S_TEXT/UTF8
Codec ID/Info : UTF-8 Plain Text
Title : Russia forced
Language : Russian

Text #2
ID : 7
Format : UTF-8
Codec ID : S_TEXT/UTF8
Codec ID/Info : UTF-8 Plain Text
Title : English
Language : English

Text #3
ID : 8
Format : UTF-8
Codec ID : S_TEXT/UTF8
Codec ID/Info : UTF-8 Plain Text
Title : German forced
Language : German

Text #4
ID : 9
Format : UTF-8
Codec ID : S_TEXT/UTF8
Codec ID/Info : UTF-8 Plain Text
Title : German
Language : German

Menu
00:00:00.000 : :00:00:00.000
00:00:52.552 : :00:00:52.552
00:02:09.671 : :00:02:09.671
00:02:54.341 : :00:02:54.341
00:03:50.730 : :00:03:50.730
00:05:09.809 : :00:05:09.809
00:06:21.214 : :00:06:21.214
00:07:28.823 : :00:07:28.823
00:08:30.135 : :00:08:30.135
00:09:22.437 : :00:09:22.437
00:11:30.940 : :00:11:30.940
00:15:05.488 : :00:15:05.488
00:16:23.858 : :00:16:23.858
00:18:06.294 : :00:18:06.294
00:18:55.968 : :00:18:55.968
00:20:26.308 : :00:20:26.308
00:22:28.514 : :00:22:28.514
00:23:59.605 : :00:23:59.605
00:24:59.164 : :00:24:59.164
00:26:25.042 : :00:26:25.042
00:27:19.137 : :00:27:19.137
00:29:11.249 : :00:29:11.249
00:29:54.376 : :00:29:54.376
00:32:14.266 : :00:32:14.266
00:34:24.646 : :00:34:24.646
00:35:13.111 : :00:35:13.111
00:36:04.245 : :00:36:04.245
00:38:19.506 : :00:38:19.506
00:40:30.511 : :00:40:30.511
00:42:29.255 : :00:42:29.255
00:45:51.082 : :00:45:51.082
00:48:47.007 : :00:48:47.007
00:51:03.686 : :00:51:03.686
00:52:21.638 : :00:52:21.638
00:55:05.802 : :00:55:05.802
00:56:33.348 : :00:56:33.348
00:58:11.822 : :00:58:11.822
00:59:40.035 : :00:59:40.035
01:00:11.775 : :01:00:11.775
01:02:22.447 : :01:02:22.447
01:03:47.657 : :01:03:47.657
01:06:02.125 : :01:06:02.125
01:07:45.520 : :01:07:45.520
01:09:04.349 : :01:09:04.349
01:12:16.624 : :01:12:16.624
01:14:27.421 : :01:14:27.421
01:15:43.456 : :01:15:43.456
01:19:07.534 : :01:19:07.534
01:20:18.981 : :01:20:18.981
01:21:27.216 : :01:21:27.216
01:22:41.206 : :01:22:41.206
01:23:57.199 : :01:23:57.199
01:25:03.265 : :01:25:03.265
01:25:46.391 : :01:25:46.391
01:26:30.560 : :01:26:30.560
01:27:29.035 : :01:27:29.035
01:29:07.050 : :01:29:07.050
01:31:58.388 : :01:31:58.388
01:33:37.070 : :01:33:37.070
01:34:32.333 : :01:34:32.333
01:35:54.040 : :01:35:54.040
01:37:31.304 : :01:37:31.304
01:39:22.915 : :01:39:22.915
01:41:00.096 : :01:41:00.096
Свернуть

Скриншоты

Изображение

Изображение

Изображение

Свернуть
_________________
«you failed because you had the wrong dream...»
Не в сети
Профиль  
 Добавлено: 2011-08-15 21:57 (спустя 7 часов)
Top-seeder
Аватара пользователя
Стаж: 6 лет 10 месяцев
Возраст: 28
Сообщений: 280
Спасибок: 606
nimphus
а чей рип если не секрет? :)
Не в сети
Профиль  
 Добавлено: 2012-07-01 14:44 (спустя 10 месяцев)
Аватара пользователя
Стаж: 7 лет 8 месяцев
Возраст: 31
Сообщений: 38
Раздайте плз :ti_pa:
Не в сети
Профиль  
 Добавлено: 2014-03-31 00:01 (спустя 1 год 8 месяцев)
Стаж: 8 лет
Возраст: 30
Сообщений: 43
дайте скорости, пожалуйста :(
Не в сети
Профиль  
Начать новую темуОтветить на тему  [ Сообщений: 4 ] 
Вы не можете начинать темы
Вы не можете отвечать на сообщения
Вы не можете редактировать свои сообщения
Вы не можете удалять свои сообщения