Правила форума

  • В этом разделе создание новых тем Запрещено.
  • Для создания новых тем пользуйтесь Корневым разделом DVD и HD фильмы.
Начать новую темуОтветить на тему  [ Сообщений: 4 ] 
Торрент файл
Размер: 7.76 GB • Зарегистрирован: 3 года 10 месяцев • Статус: Проверено
Скачан: 61 раз • Желающих скачать: 0 • Поблагодарили: 25 раз
 Раздают: 0  |  0 KB/s  ]   Качают: 0  |  0 KB/s  ] 
 Полного источника не было 1 год 9 месяцев 
Сообщения
 Добавлено: 2013-01-14 18:15
Аватара пользователя
Стаж: 5 лет 4 месяца
Возраст: 26
Сообщений: 1658
Спасибок: 45809
Лайков: 69
Терминатор: Да придёт спаситель / Terminator Salvation


«Начало конца».

Изображение
Год выпуска: 2007
Страна: Изображение Изображение Изображение Изображение
Жанр: Фантастика, Боевик, Триллер, Драма
Продолжительность: 01:54:46
Перевод: Дублированный

Режиссёр: МакДжи

Сценарий: Джон Д. Бранкато, Майкл Феррис

Продюсер: Дерек Андерсон, Мориц Борман, Виктор Кубичек

Оператор: Шейн Хёрлбат

Композитор: Дэнни Элфман

Xудожник: Мартин Лэйн, Трой Сайзмор, Майкл Уилкинсон

В ролях: Кристиан Бэйл, Сэм Уортингтон, Мун Бладгуд, Хелена Бонем Картер, Антон Ельчин, Джадагрейс, Брайс Даллас Ховард, Коммон, Джейн Александр, Майкл Айронсайд.

Описание: 2018 год от рождества Христова. Джон Коннор — человек, чья судьба — возглавить Сопротивление электронному мозгу Скайнет и армии Терминаторов. Но в будущее, с верой в которое он возвращен, вклинивается таинственный Маркус Райт: незнакомец, чьи последние воспоминания рисуют камеру смертников.

Коннор должен понять, кто такой Маркус — посланник будущего или спасшийся из прошлого. И на фоне подготовки Скайнетом решающего удара, Коннор и Райт отправляются в путешествие, приводящее их в самую сердцевину взбунтовавшейся операционной системы, где открывается ужасная тайна, кроющаяся за потенциальным уничтожением человечества.



Изображение



Бюджет: $200 000 000
Сборы в мире: $371 353 001
Сборы в России: $14 507 635
Мировая премьера:14 мая 2009.
Российский прокат:4 июня 2009, «BVSPR Sony»
Релиз на DVD:20 августа 2009, «Columbia/Sony».
Релиз на Blu-Ray:28 января 2010, «Columbia/Sony».

Качество: BDRip 1080p
Формат: Matroska
Видео: 1920x800, 8400 Kbps, 23.976 fps
Аудио: AC-3, 6 ch, 640 kbps (Rus)



MediaInfo
Общее
Уникальный идентификатор : 174238717110977628789681334731583322740 (0x83152801ACE82DF3844041BD81DCFA74)
Полное имя : Терминатор. Да придёт спаситель.2009.BDRip.1080p.Rus.Eng.mkv
Формат : Matroska
Версия формата : Version 4 / Version 2
Размер файла : 7,76 Гбайт
Продолжительность : 1 ч. 54 м.
Общий поток : 9675 Кбит/сек
Название фильма : Терминатор: Да придёт спаситель.2009
Дата кодирования : UTC 2010-02-22 21:41:31
Программа кодирования : mkvmerge v5.8.0 ('No Sleep / Pillow') built on Sep 30 2012 10:57:14
Библиотека кодирования : libebml v1.3.0 + libmatroska v1.4.0

Видео
Идентификатор : 1
Формат : AVC
Формат/Информация : Advanced Video Codec
Профиль формата : High@L4.1
Параметр CABAC формата : Да
Параметр ReFrames формата : 5 кадров
Идентификатор кодека : V_MPEG4/ISO/AVC
Продолжительность : 1 ч. 54 м.
Битрейт : 8400 Кбит/сек
Ширина : 1920 пикселей
Высота : 800 пикселей
Соотношение сторон : 2,40:1
Режим частоты кадров : Постоянный
Частота кадров : 23,976 кадра/сек
Цветовое пространство : YUV
Субдискретизация насыщенности : 4:2:0
Битовая глубина : 8 бит
Тип развёртки : Прогрессивная
Бит/(Пиксели*Кадры) : 0.228
Размер потока : 6,58 Гбайт (85%)
Заголовок : Rip by Boriy
Библиотека кодирования : x264 core 128 r2216 198a7ea
Настройки программы : cabac=1 / ref=5 / deblock=1:0:0 / analyse=0x3:0x113 / me=umh / subme=10 / psy=1 / psy_rd=1.00:0.10 / mixed_ref=1 / me_range=32 / chroma_me=1 / trellis=2 / 8x8dct=1 / cqm=0 / deadzone=21,11 / fast_pskip=0 / chroma_qp_offset=-3 / threads=12 / lookahead_threads=2 / sliced_threads=0 / nr=0 / decimate=0 / interlaced=0 / bluray_compat=0 / constrained_intra=0 / bframes=5 / b_pyramid=2 / b_adapt=2 / b_bias=0 / direct=3 / weightb=1 / open_gop=0 / weightp=2 / keyint=240 / keyint_min=23 / scenecut=40 / intra_refresh=0 / rc=2pass / mbtree=0 / bitrate=8400 / ratetol=1.0 / qcomp=0.60 / qpmin=0 / qpmax=69 / qpstep=4 / cplxblur=20.0 / qblur=0.5 / ip_ratio=1.40 / pb_ratio=1.30 / aq=1:0.80
Язык : English
Default : Да
Forced : Нет

Аудио #1
Идентификатор : 2
Формат : AC-3
Формат/Информация : Audio Coding 3
Расширение режима : CM (complete main)
Параметр Endianness формата : Big
Идентификатор кодека : A_AC3
Продолжительность : 1 ч. 54 м.
Вид битрейта : Постоянный
Битрейт : 640 Кбит/сек
Каналы : 6 каналов
Расположение каналов : Front: L C R, Side: L R, LFE
Частота : 48,0 КГц
Битовая глубина : 16 бит
Метод сжатия : С потерями
Размер потока : 525 Мбайт (7%)
Заголовок : Дубляж
Язык : Russian
Default : Да
Forced : Нет

Меню
00:00:00.000 : :Chapter 1
00:04:11.626 : :Chapter 2
00:14:31.412 : :Chapter 3
00:21:09.184 : :Chapter 4
00:29:12.292 : :Chapter 5
00:34:25.938 : :Chapter 6
00:41:07.631 : :Chapter 7
00:50:16.680 : :Chapter 8
00:56:21.002 : :Chapter 9
01:06:19.975 : :Chapter 10
01:15:25.645 : :Chapter 11
01:22:51.466 : :Chapter 12
01:30:36.305 : :Chapter 13
01:34:56.273 : :Chapter 14
01:38:54.970 : :Chapter 15
01:42:44.157 : :Chapter 16

Свернуть

Трейлер
Свернуть

Скриншоты
Изображение
Изображение
Изображение
Свернуть
_________________
S.T.A.L.K.E.R.: Lost Alpha
Не в сети
Профиль  
 Добавлено: 2013-01-14 19:12 (спустя 57 минут)
Games Release Group
Аватара пользователя
Стаж: 5 лет 10 месяцев
Возраст: 21
Сообщений: 928
Спасибок: 11158
Лайков: 26
хороший фильм :co_ol:
_________________
Изображение
Не в сети
Профиль  
 Добавлено: 2013-01-14 20:08 (спустя 56 минут)
Аватара пользователя
Стаж: 5 лет 4 месяца
Возраст: 26
Сообщений: 1658
Спасибок: 45809
Лайков: 69
DMITRIY WAYNE
:men: :a_g_a:
_________________
S.T.A.L.K.E.R.: Lost Alpha
Не в сети
Профиль  
 Добавлено: 2013-02-06 09:05 (спустя 22 дня)
Стаж: 8 лет
Сообщений: 5
Такой спойлер на втором скрине...
Не в сети
Профиль  
Начать новую темуОтветить на тему  [ Сообщений: 4 ] 
Вы не можете начинать темы
Вы не можете отвечать на сообщения
Вы не можете редактировать свои сообщения
Вы не можете удалять свои сообщения