Правила форума

  • В этом разделе создание новых тем Запрещено.
  • Для создания новых тем пользуйтесь Корневым разделом DVD и HD фильмы.
Начать новую темуОтветить на тему  [ 1 сообщение ] 
Торрент файл
Размер: 5.18 GB • Зарегистрирован: 1 год 1 месяц • Статус: Проверено
Скачан: 116 раз • Желающих скачать: 0 • Поблагодарили: 20 раз
 Раздают: 2  |  0 KB/s  ]   Качают: 0  |  0 KB/s  ] 
Сообщения
 Добавлено: 2015-10-15 18:11
DVD Release Group
Аватара пользователя
Стаж: 7 лет 1 месяц
Сообщений: 3549
Спасибок: 247096
Лайков: 1018
Терминатор: Генезис

Terminator: Genisys


Изображение


Год выпуска: 2015
Страна: США
Жанр: Фантастика, боевик, триллер, приключения
Продолжительность: 02:05:43
Перевод: Профессиональный (полное дублирование)
Режиссер: Алан Тейлор
В ролях: Арнольд Шварценеггер, Джейсон Кларк, Эмилия Кларк, Джай Кортни, Дж.К. Симмонс, Дайо Окенийи, Мэтт Смит, Кортни Б. Вэнс, Ли Бён Хон, Майкл Глэдис
Описание: Когда Джон Коннор, лидер сопротивления, посылает сержанта Кайла Риза назад в 1984 год, чтобы защитить Сару Коннор и спасти будущее, неожиданный поворот событий создает разлом во времени. Сержант Риз оказывается в новой, незнакомой версии прошлого, где он встречает неожиданных союзников, в том числе Терминатора, новых опасных врагов, и новую миссию: изменить будущее…
Изображение Изображение
Качество: BDRip 720p
Формат: MKV
Видео кодек: H.264
Аудио кодек: AC3
Видео: 1280x536 23.98fps 4762kbps
Аудио:
Аудио Rus: 48kHz 6ch 384Kbps
Аудио Eng: 48kHz 6ch 640Kbps
"MediaInfo"
Формат : Matroska
Версия формата : Version 4 / Version 2
Размер файла : 5,18 Гбайт
Продолжительность : 2 ч. 5 м.
Общий поток : 5903 Кбит/сек
Название фильма : Terminator Genisys (2015)
Дата кодирования : UTC 2015-10-15 10:35:11
Программа кодирования : mkvmerge v8.3.0 ('Over the Horizon') 64bit
Библиотека кодирования : libebml v1.3.1 + libmatroska v1.4.2
DURATION : 02:05:43.104000000
NUMBER_OF_FRAMES : 235722
NUMBER_OF_BYTES : 362068992
_STATISTICS_WRITING_APP : mkvmerge v8.3.0 ('Over the Horizon') 64bit
_STATISTICS_WRITING_DATE_UTC : 2015-10-15 10:35:11
_STATISTICS_TAGS : BPS DURATION NUMBER_OF_FRAMES NUMBER_OF_BYTES

Видео
Идентификатор : 1
Формат : AVC
Формат/Информация : Advanced Video Codec
Профиль формата : High@L4.1
Параметр CABAC формата : Да
Параметр ReFrames формата : 12 кадров
Идентификатор кодека : V_MPEG4/ISO/AVC
Продолжительность : 2 ч. 5 м.
Битрейт : 4762 Кбит/сек
Ширина : 1280 пикселей
Высота : 536 пикселей
Соотношение сторон : 2,40:1
Режим частоты кадров : Постоянный
Частота кадров : 23,976 кадра/сек
Цветовое пространство : YUV
Субдискретизация насыщенности : 4:2:0
Битовая глубина : 8 бит
Тип развёртки : Прогрессивная
Бит/(Пиксели*Кадры) : 0.289
Размер потока : 4,18 Гбайт (81%)
Заголовок : HDBits Internal Release by EbP
Библиотека кодирования : x264 core 142 r2431+42 c69a006 tMod [8-bit@4:2:0 X86_64]
Настройки программы : cabac=1 / ref=12 / deblock=1:-3:-3 / analyse=0x3:0x133 / me=umh / subme=11 / psy=1 / fade_compensate=0.00 / psy_rd=1.05:0.00 / mixed_ref=1 / me_range=32 / chroma_me=1 / trellis=2 / 8x8dct=1 / cqm=0 / deadzone=21,11 / fast_pskip=0 / chroma_qp_offset=-2 / threads=12 / lookahead_threads=2 / sliced_threads=0 / nr=0 / decimate=0 / interlaced=0 / bluray_compat=0 / constrained_intra=0 / fgo=0 / bframes=8 / b_pyramid=2 / b_adapt=2 / b_bias=0 / direct=3 / weightb=1 / open_gop=0 / weightp=2 / keyint=250 / keyint_min=23 / scenecut=40 / intra_refresh=0 / rc_lookahead=60 / rc=crf / mbtree=0 / crf=15.4000 / qcomp=0.75 / qpmin=0:0:0 / qpmax=69:69:69 / qpstep=4 / vbv_maxrate=62500 / vbv_bufsize=78125 / crf_max=0.0 / nal_hrd=none / filler=0 / ip_ratio=1.30 / pb_ratio=1.20 / aq=3:0.70 / aq-sensitivity=10.00 / aq-factor=1.00:1.00:1.00 / aq2=0 / aq3=0 / zones=551,636,crf=12.5/2043,2283,crf=12.5/3443,3530,crf=12/12521,12557,crf=13/12923,13301,crf=12/17807,18240,crf=12.5/23439,23514,crf=12.5/25552,25625,crf=12/29803,29895,crf=12/30560,30656,crf=11.5/39221,39270,crf=11/46291,46355,crf=10.5/52838,52896,crf=10.5/53782,53807,crf=11/54426,54638,crf=12/65003,65175,crf=12/74742,74781,crf=11/111635,111947,crf=11/112772,112874,crf=10/117479,117558,crf=11/123588,123733,crf=11/129233,129254,crf=11.5/129674,129819,crf=12/130553,130622,crf=11/134878,134967,crf=11/135530,135564,crf=12/140584,140784,crf=11/152226,152303,crf=11/153587,153666,crf=11.5/153882,153943,crf=12/157802,157882,crf=11
Default : Да
Forced : Нет
Коэффициенты матрицы : BT.709
DURATION : 02:05:42.994000000
NUMBER_OF_FRAMES : 180851
NUMBER_OF_BYTES : 4597739311
_STATISTICS_WRITING_APP : mkvmerge v8.3.0 ('Over the Horizon') 64bit
_STATISTICS_WRITING_DATE_UTC : 2015-10-15 10:35:11
_STATISTICS_TAGS : BPS DURATION NUMBER_OF_FRAMES NUMBER_OF_BYTES

Аудио #1
Идентификатор : 2
Формат : AC-3
Формат/Информация : Audio Coding 3
Расширение режима : CM (complete main)
Параметр Endianness формата : Big
Идентификатор кодека : A_AC3
Продолжительность : 2 ч. 5 м.
Вид битрейта : Постоянный
Битрейт : 384 Кбит/сек
Каналы : 6 каналов
Расположение каналов : Front: L C R, Side: L R, LFE
Частота : 48,0 КГц
Битовая глубина : 16 бит
Метод сжатия : С потерями
Размер потока : 345 Мбайт (7%)
Язык : Russian
Default : Да
Forced : Нет

Аудио #2
Идентификатор : 3
Формат : AC-3
Формат/Информация : Audio Coding 3
Расширение режима : CM (complete main)
Параметр Endianness формата : Big
Идентификатор кодека : A_AC3
Продолжительность : 2 ч. 5 м.
Вид битрейта : Постоянный
Битрейт : 640 Кбит/сек
Каналы : 6 каналов
Расположение каналов : Front: L C R, Side: L R, LFE
Частота : 48,0 КГц
Битовая глубина : 16 бит
Метод сжатия : С потерями
Размер потока : 575 Мбайт (11%)
Язык : English
Default : Нет
Forced : Нет

Текст #1
Идентификатор : 4
Формат : UTF-8
Идентификатор кодека : S_TEXT/UTF8
Идентификатор кодека/Информация : UTF-8 Plain Text
Язык : English
Default : Да
Forced : Нет

Текст #2
Идентификатор : 5
Формат : UTF-8
Идентификатор кодека : S_TEXT/UTF8
Идентификатор кодека/Информация : UTF-8 Plain Text
Заголовок : SDH
Язык : English
Default : Нет
Forced : Нет

Текст #3
Идентификатор : 6
Формат : UTF-8
Идентификатор кодека : S_TEXT/UTF8
Идентификатор кодека/Информация : UTF-8 Plain Text
Заголовок : CHS
Язык : Chinese
Default : Нет
Forced : Нет

Текст #4
Идентификатор : 7
Формат : UTF-8
Идентификатор кодека : S_TEXT/UTF8
Идентификатор кодека/Информация : UTF-8 Plain Text
Заголовок : CHT
Язык : Chinese
Default : Нет
Forced : Нет

Текст #5
Идентификатор : 8
Формат : UTF-8
Идентификатор кодека : S_TEXT/UTF8
Идентификатор кодека/Информация : UTF-8 Plain Text
Язык : French
Default : Нет
Forced : Нет

Текст #6
Идентификатор : 9
Формат : UTF-8
Идентификатор кодека : S_TEXT/UTF8
Идентификатор кодека/Информация : UTF-8 Plain Text
Язык : Portuguese
Default : Нет
Forced : Нет

Текст #7
Идентификатор : 10
Формат : UTF-8
Идентификатор кодека : S_TEXT/UTF8
Идентификатор кодека/Информация : UTF-8 Plain Text
Язык : Spanish
Default : Нет
Forced : Нет

Текст #8
Идентификатор : 11
Формат : UTF-8
Идентификатор кодека : S_TEXT/UTF8
Идентификатор кодека/Информация : UTF-8 Plain Text
Язык : Turkish
Default : Нет
Forced : Нет

Меню
00:00:00.000 : en:00:00:00.000
00:07:40.335 : en:00:07:40.335
00:14:20.735 : en:00:14:20.735
00:20:31.564 : en:00:20:31.564
00:27:48.417 : en:00:27:48.417
00:34:54.801 : en:00:34:54.801
00:41:02.627 : en:00:41:02.627
00:46:28.786 : en:00:46:28.786
00:53:05.516 : en:00:53:05.516
01:01:00.240 : en:01:01:00.240
01:08:22.557 : en:01:08:22.557
01:14:43.813 : en:01:14:43.813
01:21:31.261 : en:01:21:31.261
01:31:01.706 : en:01:31:01.706
01:38:42.750 : en:01:38:42.750
01:45:41.085 : en:01:45:41.085
01:52:48.971 : en:01:52:48.971
01:58:00.115 : en:01:58:00.115
Свернуть

"Скриншоты"
Изображение
Изображение
Изображение
Свернуть
Не в сети
Профиль  
Начать новую темуОтветить на тему  [ 1 сообщение ] 
Вы не можете начинать темы
Вы не можете отвечать на сообщения
Вы не можете редактировать свои сообщения
Вы не можете удалять свои сообщения