Правила форума

  • В этом разделе создание новых тем Запрещено.
  • Для создания новых тем пользуйтесь Корневым разделом DVD и HD фильмы.
Начать новую темуОтветить на тему  [ Сообщений: 5 ] 
Торрент файл
Размер: 7.75 GB • Зарегистрирован: 3 года 10 месяцев • Статус: Проверено
Скачан: 67 раз • Желающих скачать: 0 • Поблагодарили: 24 раза
 Раздают: 0  |  0 KB/s  ]   Качают: 0  |  0 KB/s  ] 
 Полного источника не было 1 день 17 часов 
Сообщения
 Добавлено: 2013-01-24 13:17
Аватара пользователя
Стаж: 5 лет 4 месяца
Возраст: 26
Сообщений: 1658
Спасибок: 45809
Лайков: 69
Терминатор / The Terminator


««Твое будущее в его руках»».

Изображение
Год выпуска: 1984
Страна: Изображение Изображение
Жанр: Фантастика, Боевик, Триллер, Драма
Продолжительность: 01:47:03
Перевод: Дублированный + Оригинал

Режиссёр: Джеймс Кэмерон

Сценарий: Джеймс Кэмерон, Гэйл Энн Хёрд, Уильям Уишер мл

Продюсер: Гэйл Энн Хёрд, Джон Дэйли, Дерек Гибсон

Оператор: Адам Гринберг

Композитор: Брэд Фидель

Xудожник: Джордж Костильо, Хилари Райт, Мария Ребман Казо

В ролях: Арнольд Шварценеггер, Майкл Бин, Линда Хэмилтон, Пол Уинфилд, Лэнс Хенриксен, Рик Россович, Бесс Мотта, Эрл Боэн, Дик Миллер, Шоун Шеппс.

Описание: В центре сюжета — противостояние солдата Кайла Риза и киборга-терминатора, прибывших в 1984-ый год из пост-апокалиптического будущего, где миром правят машины-убийцы, а человечество находится на грани вымирания. Цель киборга: убить девушку по имени Сара Коннор, чей ещё нерождённый сын к 2029 году выиграет войну человечества с машинами. Цель солдата Кайла Риза: спасти Сару и остановить Терминатора любой ценой.



Изображение



Бюджет: $6 400 000
Сборы в США: $38 371 200
Сборы в Мире: $78 371 200
Мировая премьера:26 октября 1984.
Релиз на DVD:28 августа 2008, «Двадцатый Век Фокс СНГ».
Релиз на Blu-Ray:4 октября 2012, «Двадцатый Век Фокс СНГ».

Качество: BDRip 1080p
Формат: Matroska
Видео: 1920x1040, 9098 Kbps, 23.976 fps
Аудио: AC-3, 6 ch, 640 kbps (Rus)
Аудио 2: AC-3, 6 ch, 640 kbps (Eng)
Cубтитры: русские (полные, форсированные), английские


MediaInfo
Общее
Уникальный идентификатор : 234313580479633703908252270679236002861 (0xB04727733E6C8E2AA347DA88E02BC42D)
Полное имя : Терминатор.1984.BDRip.1080p.Rus.Eng.mkv
Формат : Matroska
Версия формата : Version 4 / Version 2
Размер файла : 7,75 Гбайт
Продолжительность : 1 ч. 47 м.
Общий поток : 10,4 Мбит/сек
Название фильма : Терминатор.1984
Дата кодирования : UTC 2010-02-22 21:41:31
Программа кодирования : mkvmerge v5.8.0 ('No Sleep / Pillow') built on Sep 30 2012 10:57:14
Библиотека кодирования : libebml v1.3.0 + libmatroska v1.4.0

Видео
Идентификатор : 1
Формат : AVC
Формат/Информация : Advanced Video Codec
Профиль формата : High@L4.1
Параметр CABAC формата : Да
Параметр ReFrames формата : 4 кадра
Идентификатор кодека : V_MPEG4/ISO/AVC
Продолжительность : 1 ч. 47 м.
Битрейт : 9098 Кбит/сек
Ширина : 1920 пикселей
Высота : 1040 пикселей
Соотношение сторон : 1,85:1
Режим частоты кадров : Постоянный
Частота кадров : 23,976 кадра/сек
Цветовое пространство : YUV
Субдискретизация насыщенности : 4:2:0
Битовая глубина : 8 бит
Тип развёртки : Прогрессивная
Бит/(Пиксели*Кадры) : 0.190
Размер потока : 6,64 Гбайт (86%)
Заголовок : Rip by Boriy
Библиотека кодирования : x264 core 128 r2216 198a7ea
Настройки программы : cabac=1 / ref=4 / deblock=1:0:0 / analyse=0x3:0x113 / me=umh / subme=10 / psy=1 / psy_rd=1.00:0.10 / mixed_ref=1 / me_range=32 / chroma_me=1 / trellis=2 / 8x8dct=1 / cqm=0 / deadzone=21,11 / fast_pskip=0 / chroma_qp_offset=-3 / threads=12 / lookahead_threads=2 / sliced_threads=0 / nr=0 / decimate=0 / interlaced=0 / bluray_compat=0 / constrained_intra=0 / bframes=5 / b_pyramid=2 / b_adapt=2 / b_bias=0 / direct=3 / weightb=1 / open_gop=0 / weightp=2 / keyint=240 / keyint_min=23 / scenecut=40 / intra_refresh=0 / rc=2pass / mbtree=0 / bitrate=9098 / ratetol=1.0 / qcomp=0.60 / qpmin=0 / qpmax=69 / qpstep=4 / cplxblur=20.0 / qblur=0.5 / ip_ratio=1.40 / pb_ratio=1.30 / aq=1:0.80
Язык : English
Default : Да
Forced : Нет

Аудио #1
Идентификатор : 2
Формат : AC-3
Формат/Информация : Audio Coding 3
Расширение режима : CM (complete main)
Параметр Endianness формата : Big
Идентификатор кодека : A_AC3
Продолжительность : 1 ч. 47 м.
Вид битрейта : Постоянный
Битрейт : 640 Кбит/сек
Каналы : 6 каналов
Расположение каналов : Front: L C R, Side: L R, LFE
Частота : 48,0 КГц
Битовая глубина : 16 бит
Метод сжатия : С потерями
Размер потока : 490 Мбайт (6%)
Заголовок : Дубляж
Язык : Russian
Default : Да
Forced : Нет

Аудио #2
Идентификатор : 3
Формат : AC-3
Формат/Информация : Audio Coding 3
Расширение режима : CM (complete main)
Параметр Endianness формата : Big
Идентификатор кодека : A_AC3
Продолжительность : 1 ч. 47 м.
Вид битрейта : Постоянный
Битрейт : 640 Кбит/сек
Каналы : 6 каналов
Расположение каналов : Front: L C R, Side: L R, LFE
Частота : 48,0 КГц
Битовая глубина : 16 бит
Метод сжатия : С потерями
Размер потока : 490 Мбайт (6%)
Заголовок : Оригинал
Язык : English
Default : Нет
Forced : Нет

Текст #1
Идентификатор : 4
Формат : UTF-8
Идентификатор кодека : S_TEXT/UTF8
Идентификатор кодека/Информация : UTF-8 Plain Text
Заголовок : Forced
Язык : Russian
Default : Да
Forced : Да

Текст #2
Идентификатор : 5
Формат : UTF-8
Идентификатор кодека : S_TEXT/UTF8
Идентификатор кодека/Информация : UTF-8 Plain Text
Заголовок : Full
Язык : Russian
Default : Нет
Forced : Нет

Текст #3
Идентификатор : 6
Формат : UTF-8
Идентификатор кодека : S_TEXT/UTF8
Идентификатор кодека/Информация : UTF-8 Plain Text
Заголовок : Full
Язык : English
Default : Нет
Forced : Нет

Меню
00:00:00.000 : :Chapter 1
00:03:32.253 : :Chapter 2
00:05:18.151 : :Chapter 3
00:06:31.015 : :Chapter 4
00:11:38.322 : :Chapter 5
00:13:45.324 : :Chapter 6
00:15:11.827 : :Chapter 7
00:20:44.618 : :Chapter 8
00:22:49.618 : :Chapter 9
00:29:49.787 : :Chapter 10
00:33:15.034 : :Chapter 11
00:38:47.116 : :Chapter 12
00:41:25.191 : :Chapter 13
00:47:46.488 : :Chapter 14
00:50:39.995 : :Chapter 15
00:54:41.569 : :Chapter 16
00:59:04.916 : :Chapter 17
01:03:53.538 : :Chapter 18
01:09:37.548 : :Chapter 19
01:14:08.986 : :Chapter 20
01:15:00.078 : :Chapter 21
01:17:18.800 : :Chapter 22
01:18:30.372 : :Chapter 23
01:23:00.892 : :Chapter 24
01:26:24.721 : :Chapter 25
01:30:22.583 : :Chapter 26
01:32:19.367 : :Chapter 27
01:35:52.121 : :Chapter 28
01:39:53.862 : :Chapter 29
01:40:18.721 : :Chapter 30
01:40:49.334 : :Chapter 31
01:43:12.895 : :Chapter 32
Свернуть

Трейлер
Свернуть

Скриншоты
Изображение
Изображение
Изображение
Свернуть
_________________
S.T.A.L.K.E.R.: Lost Alpha
Не в сети
Профиль  
 Добавлено: 2013-01-24 13:24 (спустя 7 минут)
Аватара пользователя
Стаж: 4 года 3 месяца
Возраст: 31
Сообщений: 200
Спасибок: 195
ООО круто скачаем :co_ol:
Не в сети
Профиль  
 Добавлено: 2013-01-24 15:12 (спустя 1 час 47 минут)
Аватара пользователя
Стаж: 5 лет 4 месяца
Возраст: 26
Сообщений: 1658
Спасибок: 45809
Лайков: 69
BergoVic
:a_g_a:
_________________
S.T.A.L.K.E.R.: Lost Alpha
Не в сети
Профиль  
 Добавлено: 2013-01-24 15:57 (спустя 45 минут)
Модератор релиз-группы
Аватара пользователя
Стаж: 6 лет 9 месяцев
Возраст: 25
Сообщений: 1230
Спасибок: 8209
Лайков: 10
миллион лет не смотрел уже, надо встряхнуть память :)
_________________
Изображение 20 Mbps день; 40 Mbps ночь.
Изображение 20 Mbps день; 40 Mbps ночь.
Не в сети
Профиль  
 Добавлено: 2013-01-24 21:29 (спустя 5 часов)
Аватара пользователя
Стаж: 5 лет 4 месяца
Возраст: 26
Сообщений: 1658
Спасибок: 45809
Лайков: 69
sukre
Да киношка просто улёт ЖДЁМ ТЕРМИНАТОР 5 :co_ol:
_________________
S.T.A.L.K.E.R.: Lost Alpha
Не в сети
Профиль  
Начать новую темуОтветить на тему  [ Сообщений: 5 ] 
Вы не можете начинать темы
Вы не можете отвечать на сообщения
Вы не можете редактировать свои сообщения
Вы не можете удалять свои сообщения