Правила форума

  • В этом разделе создание новых тем Запрещено.
  • Для создания новых тем пользуйтесь Корневым разделом DVD и HD фильмы.
Начать новую темуОтветить на тему  [ 1 сообщение ] 
Торрент файл
Размер: 4.88 GB • Зарегистрирован: 4 года 2 месяца • Статус: Проверено
Скачан: 18 раз • Желающих скачать: 0 • Поблагодарили: 10 раз
 Раздают: 0  |  0 KB/s  ]   Качают: 0  |  0 KB/s  ] 
 Полного источника не было 3 года 2 месяца 
Сообщения
 Добавлено: 2012-10-05 14:54
Top-releaser
Аватара пользователя
Стаж: 6 лет 7 месяцев
Сообщений: 2078
Спасибок: 3230
Лайков: 9
Изображение

Тернер и Хуч
Turner & Hooch


Год выпуска: 1989
Страна: США
Слоган: «The Oddest Couple Ever Unleashed!»
Жанр: триллер, драма, комедия, криминал
Продолжительность: 01:35:25
Перевод: Профессиональный (многоголосый, закадровый)
Режиссер: Роджер Споттисвуд
Сценарий: Деннис Шрайак, Майкл Блоджет, Дэниел Питри мл., Джим Кэш, Джек Эппс мл.
Продюсер: Мишель Адер, Дэниел Питри мл., Рэймонд Вагнер
Оператор: Адам Гринберг
Композитор: Чарльз Гросс, Рихард Штраус
В ролях: Том Хэнкс, Мэр Уиннингхэм, Крэйг Т. Нельсон, Реджинальд ВелДжонсон, Скотт Полин, Дж. К. Куин, Джон МакИнтайр, Дэвид Нелл, Эбби Роу Смит, Кевин Сканнелл, Джоэл Бэйли, Мэри МакКаскер
Сборы в США: $71 079 915
Мировая премьера: 28 июля 1989
Описание: Профессиональный сыщик Скотт Тернер ненавидит беспорядок. В его жизни все заранее спланировано и предсказуемо. Хуч - самый неспокойный, самый невоспитанный и абсолютно неподдающийся дрессировке пес.
Не повезет тому несчастному хозяину, к которому он попадет. Тернер слишком поздно понял, кого впустил в свой дом. Но шумные ссоры ни к чему не привели. Возможно, лучший способ одолеть своего врага, это подружиться с ним.


Изображение User Rating: 7.610 (8 575)
Изображение User Rating: 5.80 (26 133)
MPAA: PG - Рекомендуется присутствие родителей
Качество: HDTVRip
Формат: Matroska
Видео: AVC; 1280x688 (1.860); 6018 Kbps; 25 fps; 0,273 bit/pixel
Аудио №1: Russian; AC3; 384 Kbps; CBR; 6 ch (НТВ+)
Аудио №2: Russian; AC3; 384 Kbps; CBR; 6 ch (А. Михалев)
Аудио №3: English; AC3; 384 Kbps; CBR; 6 ch

MediaInfo
Общее
Уникальный идентификатор : 227112180000155900152353306361906103772 (0xAADC36FE6D1E703C8C6DD4B72F2C85DC)
Полное имя : Z:\WWW\TR-Downloads\Turner and Hooch.720p[R.G.Daredevil].mkv
Формат : Matroska
Версия формата : Version 1
Размер файла : 4,88 Гбайт
Продолжительность : 1 ч. 35 м.
Общий поток : 7316 Кбит/сек
Дата кодирования : UTC 2009-07-01 20:05:22
Программа кодирования : mkvmerge v2.2.0 ('Turn It On Again') built on Mar 4 2008 12:58:26
Библиотека кодирования : libebml v0.7.7 + libmatroska v0.8.1

Видео
Идентификатор : 1
Формат : AVC
Формат/Информация : Advanced Video Codec
Профиль формата : High@L5.0
Параметр CABAC формата : Да
Параметр ReFrames формата : 16 кадров
Идентификатор кодека : V_MPEG4/ISO/AVC
Продолжительность : 1 ч. 35 м.
Битрейт : 6160 Кбит/сек
Ширина : 1280 пикселей
Высота : 688 пикселей
Соотношение сторон : 1,85:1
Частота кадров : 25,000 кадров/сек
Цветовое пространство : YUV
Субдискретизация насыщенности : 4:2:0
Битовая глубина : 8 бит
Тип развёртки : Прогрессивная
Бит/(Пиксели*Кадры) : 0.280
Размер потока : 4,01 Гбайт (82%)
Заголовок : Turner and Hooch.1989
Библиотека кодирования : x264 core 67 r1173M f6d3166
Настройки программы : cabac=1 / ref=16 / deblock=1:0:0 / analyse=0x3:0x133 / me=hex / subme=6 / psy_rd=1.0:0.0 / mixed_ref=1 / me_range=16 / chroma_me=1 / trellis=0 / 8x8dct=1 / cqm=0 / deadzone=21,11 / chroma_qp_offset=-2 / threads=6 / nr=0 / decimate=1 / mbaff=0 / bframes=2 / b_pyramid=1 / b_adapt=1 / b_bias=0 / direct=1 / wpredb=1 / keyint=250 / keyint_min=25 / scenecut=40 / rc=2pass / bitrate=6160 / ratetol=1.0 / qcomp=0.60 / qpmin=10 / qpmax=51 / qpstep=4 / cplxblur=20.0 / qblur=0.5 / ip_ratio=1.40 / pb_ratio=1.30 / aq=1:1.00
Язык : English
Default : Да
Forced : Нет

Аудио #1
Идентификатор : 2
Формат : AC-3
Формат/Информация : Audio Coding 3
Расширение режима : CM (complete main)
Параметр Endianness формата : Big
Идентификатор кодека : A_AC3
Продолжительность : 1 ч. 35 м.
Вид битрейта : Постоянный
Битрейт : 384 Кбит/сек
Каналы : 6 каналов
Расположение каналов : Front: L C R, Side: L R, LFE
Частота : 48,0 КГц
Битовая глубина : 16 бит
Метод сжатия : С потерями
Размер потока : 262 Мбайт (5%)
Заголовок : AC3 48kHz 6ch 384Kbps (Многоголосый НТВ)
Язык : Russian
Default : Да
Forced : Нет

Аудио #2
Идентификатор : 3
Формат : AC-3
Формат/Информация : Audio Coding 3
Расширение режима : CM (complete main)
Параметр Endianness формата : Big
Идентификатор кодека : A_AC3
Продолжительность : 1 ч. 35 м.
Вид битрейта : Постоянный
Битрейт : 384 Кбит/сек
Каналы : 6 каналов
Расположение каналов : Front: L C R, Side: L R, LFE
Частота : 48,0 КГц
Битовая глубина : 16 бит
Метод сжатия : С потерями
Размер потока : 262 Мбайт (5%)
Заголовок : AC3 48kHz 6ch 384Kbps (А.Михалёв)
Язык : Russian
Default : Нет
Forced : Нет

Аудио #3
Идентификатор : 4
Формат : AC-3
Формат/Информация : Audio Coding 3
Расширение режима : CM (complete main)
Параметр Endianness формата : Big
Идентификатор кодека : A_AC3
Продолжительность : 1 ч. 35 м.
Вид битрейта : Постоянный
Битрейт : 384 Кбит/сек
Каналы : 6 каналов
Расположение каналов : Front: L C R, Side: L R, LFE
Частота : 48,0 КГц
Битовая глубина : 16 бит
Метод сжатия : С потерями
Размер потока : 262 Мбайт (5%)
Заголовок : AC3 48kHz 6ch 384Kbps (Eng)
Язык : English
Default : Нет
Forced : Нет
Свернуть
"Знаете ли Вы, что..."
  • Пёс Хуч - породы бордоский дог
Свернуть
Скриншоты

Изображение
Изображение
Изображение
Изображение
Изображение
Свернуть
Не в сети
Профиль  
Начать новую темуОтветить на тему  [ 1 сообщение ] 
Вы не можете начинать темы
Вы не можете отвечать на сообщения
Вы не можете редактировать свои сообщения
Вы не можете удалять свои сообщения