Правила форума

  • В этом разделе создание новых тем Запрещено.
  • Для создания новых тем пользуйтесь Корневым разделом DVD и HD фильмы.
Начать новую темуОтветить на тему  [ 1 сообщение ] 
Торрент файл
Размер: 8.44 GB • Зарегистрирован: 4 года 3 месяца • Статус: Проверено
Скачан: 14 раз • Желающих скачать: 0 • Поблагодарили: 9 раз
 Раздают: 0  |  0 KB/s  ]   Качают: 0  |  0 KB/s  ] 
 Полного источника не было 3 года 4 месяца 
Сообщения
 Добавлено: 2012-10-05 14:36
Top-releaser
Аватара пользователя
Стаж: 6 лет 9 месяцев
Сообщений: 2078
Спасибок: 3243
Лайков: 9
Изображение

Типа крутые легавые
Hot Fuzz


Год выпуска: 2007
Страна: Великобритания, Франция, США
Слоган: «Будем мочить в сортире!»
Жанр: боевик, комедия, детектив
Продолжительность: 02:00:52
Перевод: Профессиональный (полное дублирование)
Режиссер: Эдгар Райт
Сценарий: Эдгар Райт, Саймон Пегг
Продюсер: Тим Беван, Эрик Феллнер, Найра Парк, Карен Бивер, Роналдо Васконселлос
Оператор: Джесс Холл
Композитор: Дэвид Арнольд
В ролях: Саймон Пегг, Ник Фрост, Джим Броудбент, Тимоти Далтон, Пэдди Консидайн, Эдвард Вудворд, Адам Бакстон, Мартин Фриман, Билл Найи, Роберт Поппер, Джо Корниш, Крис Уэйт
Бюджет: $16 000 000
Сборы в США: $23 637 265
Сборы в России: $1 014 700
Сборы в мире: $80 573 774
Мировая премьера: 14 февраля 2007
Релиз на DVD: 30 сентября 2008, «Мьюзик-Трейд»
Описание: Главный лондонский полицейский, констебль Николас Эйнджел переведен из города в тихий сельский городок Сэндфорд. Он пытается привыкнуть к этой мирной, и на первый взгляд лишенной преступности жизни, а также к туповатому напарнику Дэнни Баттерману.
Однако серия ужасных происшествий потрясает городок, заставляя Эйнджела убедиться в том, что Сэндфорд - совсем не такой, каким кажется на первый взгляд. Мечты Дэнни о бурной, взрывоопасной, полной стрельбы и погонями жизни становятся все более и более реальными. Настало время для провинциальных полицейских вершить правосудие больших городов!


Изображение User Rating: 7.684 (35 908)
Изображение User Rating: 7.90 (194 215)
MPAA: R - Лицам до 17 лет обязательно присутствие взрослого
Качество: BDRip, 720p
Формат: Matroska
Видео: AVC; 1280x544 (2.35:1); 6774 Kbps; 23,976 fps; 0,406 bit/pixel
Аудио №1: Russian; DTS; 754 Kbps; CBR; 6 ch; 24 bit
Аудио №2: Russian; DTS; 754 Kbps; CBR; 6 ch; 24 bit
Аудио №3: English; DTS; 1509 Kbps; CBR; 6 ch; 24 bit

Субтитры: Russian, English

Скриншоты
Изображение
Изображение
Изображение
Изображение
Изображение
Свернуть

MediaInfo
Общее
Уникальный идентификатор : 225946547297697723602364944993975262880 (0xA9FBB8DD533F3E2E8AD64104787BDEA0)
Полное имя : Z:\WWW\TR-Downloads\Hot.Fuzz.[R.G.Daredevil].mkv
Формат : Matroska
Версия формата : Version 1
Размер файла : 8,44 Гбайт
Продолжительность : 2 ч. 0 м.
Общий поток : 9992 Кбит/сек
Название фильма : Hot Fuzz =HDTracker=
Дата кодирования : UTC 2009-09-16 06:47:22
Программа кодирования : mkvmerge v2.5.3 ('Boogie') built on Mar 7 2009 15:00:41
Библиотека кодирования : libebml v0.7.7 + libmatroska v0.8.1

Видео
Идентификатор : 1
Формат : AVC
Формат/Информация : Advanced Video Codec
Профиль формата : High@L4.1
Параметр CABAC формата : Да
Параметр ReFrames формата : 12 кадров
Идентификатор кодека : V_MPEG4/ISO/AVC
Продолжительность : 2 ч. 0 м.
Битрейт : 7000 Кбит/сек
Ширина : 1280 пикселей
Высота : 544 пикселя
Соотношение сторон : 2,35:1
Частота кадров : 23,976 кадра/сек
Цветовое пространство : YUV
Субдискретизация насыщенности : 4:2:0
Битовая глубина : 8 бит
Тип развёртки : Прогрессивная
Бит/(Пиксели*Кадры) : 0.419
Размер потока : 5,72 Гбайт (68%)
Заголовок : Hot Fuzz (2007)
Библиотека кодирования : x264 core 68 r1183M f21daff
Настройки программы : cabac=1 / ref=12 / deblock=1:-3:-3 / analyse=0x3:0x133 / me=umh / subme=9 / psy_rd=1.0:0.0 / mixed_ref=1 / me_range=32 / chroma_me=1 / trellis=2 / 8x8dct=1 / cqm=0 / deadzone=21,11 / chroma_qp_offset=-2 / threads=6 / nr=0 / decimate=0 / mbaff=0 / bframes=8 / b_pyramid=1 / b_adapt=2 / b_bias=0 / direct=3 / wpredb=1 / keyint=250 / keyint_min=25 / scenecut=40 / rc=2pass / bitrate=7000 / ratetol=1.0 / qcomp=0.60 / qpmin=10 / qpmax=51 / qpstep=4 / cplxblur=20.0 / qblur=0.5 / ip_ratio=1.40 / pb_ratio=1.30 / aq=1:1.00
Язык : English
Default : Да
Forced : Нет

Аудио #1
Идентификатор : 2
Формат : DTS
Формат/Информация : Digital Theater Systems
Идентификатор кодека : A_DTS
Продолжительность : 2 ч. 0 м.
Вид битрейта : Постоянный
Битрейт : 755 Кбит/сек
Каналы : 6 каналов
Расположение каналов : Front: L C R, Side: L R, LFE
Частота : 48,0 КГц
Битовая глубина : 24 бит
Метод сжатия : С потерями
Задержка видео : 11 мс.
Размер потока : 652 Мбайт (8%)
Заголовок : DTS 5.1 768 Kbps (Dubbed)
Язык : Russian
Default : Да
Forced : Нет

Аудио #2
Идентификатор : 3
Формат : DTS
Формат/Информация : Digital Theater Systems
Идентификатор кодека : A_DTS
Продолжительность : 2 ч. 0 м.
Вид битрейта : Постоянный
Битрейт : 755 Кбит/сек
Каналы : 6 каналов
Расположение каналов : Front: L C R, Side: L R, LFE
Частота : 48,0 КГц
Битовая глубина : 24 бит
Метод сжатия : С потерями
Задержка видео : 1 с. 0 мс.
Размер потока : 652 Мбайт (8%)
Заголовок : DTS 5.1 768 Kbps (Nemahov)
Язык : Russian
Default : Нет
Forced : Нет

Аудио #3
Идентификатор : 4
Формат : DTS
Формат/Информация : Digital Theater Systems
Идентификатор кодека : A_DTS
Продолжительность : 2 ч. 0 м.
Вид битрейта : Постоянный
Битрейт : 1510 Кбит/сек
Каналы : 6 каналов
Расположение каналов : Front: L C R, Side: L R, LFE
Частота : 48,0 КГц
Битовая глубина : 24 бит
Метод сжатия : С потерями
Размер потока : 1,27 Гбайт (15%)
Заголовок : DTS 5.1 1536 Kbps
Язык : English
Default : Нет
Forced : Нет

Текст #1
Идентификатор : 5
Формат : UTF-8
Идентификатор кодека : S_TEXT/UTF8
Идентификатор кодека/Информация : UTF-8 Plain Text
Язык : Russian
Default : Да
Forced : Нет

Текст #2
Идентификатор : 6
Формат : UTF-8
Идентификатор кодека : S_TEXT/UTF8
Идентификатор кодека/Информация : UTF-8 Plain Text
Язык : English
Default : Нет
Forced : Нет
Свернуть
"Знаете ли Вы, что..."
  • В одной из сцен фильма можно заметить DVD-диск с фильмом «Зомби по имени Шон» (2004).
  • Съёмочный период - 11 недель.
  • Специально для своей роли Саймон Пегг прошел курс по обращению с различными видами стрелкового оружия, а также научился эффектно тормозить на велосипеде.
  • Ник Фрост является фанатом футбольного клуба «West Ham», поэтому ему очень не понравилось носить в фильме футболку «Bristol Rovers».
  • Код на двери в комнату с уликами - 999. Такой же телефонный номер у британской полиции.
  • Когда Саймон Пегг говорит Нику Фросту: «Что, никогда не срезал углы?» - а потом прыгает через заборы, это - ссылка на «Зомби по имени Шон», где Пегг говорит точно такую же фразу, но в попытке перепрыгнуть забор падает вместе с ним.
  • Фраза «Забудь, Ник… Это - Сэндфорд» является ссылкой на последнюю фразу в фильме «Китайский квартал» (1974).
  • Николас Энджел получил своё имя в честь главного музыкального консультанта «Зомби по имени Шон» Ника Энджела.
  • Театральная постановка «Ромео и Джульетта» - это ссылка на картину База Лурмана. Актеры в театре одеты точно в такие же костюмы, что и в фильме Лурмана. Финальная песня («Lovefool» группы «The Cardigans»), которую исполняют театральные актеры, также звучит в картине 1996 года.
  • В «Зомби по имени Шон» (2004) Эд (Ник Фрост) говорит, что выстрелил в ногу своей сестры из пневматического ружья. В данном фильме персонаж Ника Фроста нечаянно попал в ногу доктора из пневматического ружья.
  • Дежурный по отделению читает «Соучастие» Йена Бэнкса, где речь идет о жестоких убийствах.
  • На протяжении первой половины фильма Дэнни постоянно задаёт Энджелу идиотские вопросы, например: «А ты стрелял когда-нибудь из двух рук в прыжке?» Энджел отвечает: «Нет. Ты смотрел слишком много боевиков». Однако во второй половине фильма Энджел следует всем штампам фильмов жанра экшн.
  • Дэнни Баттерман: «Тебе что-нибудь купить в магазине?» Николас Энджел: «Корнетто». Точно такой же диалог произносят Ник Фрост и Саймон Пегг в фильме «Зомби по имени Шон» (2004).
  • Специально для своей роли Саймон Пегг похудел на 13 килограмм.
  • «Somerfield» - реально существующая сеть супермаркетов в Британии. Все сцены в супермаркете были сняты в одном из магазинов данной торговой сети.
  • Для того чтобы подчеркнуть, насколько отстали от времени полицейские Сэндфорда, в полицейском участке можно услышать звук загрузки старого компьютера «Apple Macintosh». Такие компьютеры прекратили выпускать десять лет назад.
  • Когда Дэнни рассматривает DVD с фильмом «Суперполицейский» (1992), он видит Ника, бегущего за вором, и бросает DVD обратно в корзину. Если внимательно присмотреться к другим DVD, лежащим в корзине, то можно заметить диск с фильмом «Зомби по имени Шон» (2004). Однако название картины было изменено на «Вечеринку зомби» (Zombies Party). Под точно таким же названием фильм вышел в испанский кинопрокат.
  • После показа фильма в Ньюкасле, отвечая на вопросы зрителей, Эдгар Райт признался, что небольшие роли в фильме сыграли Питер Джексон и Кейт Бланшетт. Джексон сыграл Санта Клауса, прокалывающего ножницами руку Энджела. Бланшетт исполнила роль Джанин, бывшей возлюбленной Ника.
  • Двух женщин-судей, оценивающих Сэндфорд на звание лучшей деревни, сыграли матери Эдгара Райта и Саймона Пегга.
  • Фильм снимался в маленьком городке под названием Уэллс, где вырос сам Эдгар Райт.
  • В фильме Эйнджел говорит: «Я всегда хотел быть полицейским, но передумал летом 1979, когда хотел стать Кермитом». В данном случае, здесь отсылка на сериал «Улица Сезам», где фигурировал персонаж Кермит, который был лягушкой.
  • В середине фильма, главный герой Николас Эйнджел рассказывает, что ему в детстве дядя подарил детскую педальную полицейскую машинку. В начале фильма можно заметить детскую фотографию главного героя, где он изображен с этой машинкой.
  • У Эдгара Райта есть брат, Оскар. Он занимается рисованием комиксов. Именно его брат сделал анимацию в блокноте Дэнни Баттермана, а в анимации было изображено, как «бобби» (английский полицейский) убивает грабителя из пистолета.
Свернуть
Не в сети
Профиль  
Начать новую темуОтветить на тему  [ 1 сообщение ] 
Вы не можете начинать темы
Вы не можете отвечать на сообщения
Вы не можете редактировать свои сообщения
Вы не можете удалять свои сообщения