Правила форума

  • В этом разделе создание новых тем Запрещено.
  • Для создания новых тем пользуйтесь Корневым разделом DVD и HD фильмы.
Начать новую темуОтветить на тему  [ 1 сообщение ] 
Торрент файл
Размер: 3.74 GB • Зарегистрирован: 4 года 3 месяца • Статус: Проверено
Скачан: 23 раза • Желающих скачать: 0 • Поблагодарили: 1 раз
 Раздают: 0  |  0 KB/s  ]   Качают: 0  |  0 KB/s  ] 
 Полного источника не было 3 года 2 месяца 
Сообщения
 Добавлено: 2012-08-31 19:00
Книголюб
Аватара пользователя
Стаж: 7 лет 2 месяца
Сообщений: 2823
Спасибок: 48829
Лайков: 73
Типа крутые спартанцы
The Legend of Awesomest Maximus

Изображение


Год выпуска: 2011
Страна: США
Слоган: «Epic? Fail? You decide.»
Жанр: комедия
Продолжительность: 01:30:53
Перевод: Профессиональный (многоголосый закадровый)

Режиссёр: Джеф Кэнью
В ролях: Уилл Сассо, Тони Кокс, Кристанна Локен, Рип Торн, Йен Зиринг, Адам Дивайн, Расселл Питерс, Софи Монк, Дион Ричмонд, Дэннис Хэскинс...
Описание: Сюжет картины рассказывает о храбром генерале Овезоместе Максимусе, которому Король Трои приказывает сопровождать принца Орландо в Грецию, чтобы уладить назревающий конфликт с тамошним правителем. В гостях у неприятеля принц Орландо встречает красавицу принцессу Эллен, и увозит ее с собой, обратно в Трою. Разгневанный греческий царь собирает огромную армию в миллион человек и идет войной на Трою. В ответ отважный Овезомест Максимус призывает на помощь 300 спартанцев.
Мировая премьера: 5 августа 2011
Изображение 7.341 44

Качество: BDRip 720p
Формат: MKV
Видео кодек: H264 (AVC)
Аудио кодек: AC3 (Dolby Digital)
Видео: 1280x720 23.976fps 5 138 Kbps 0.233Bits/Pixe
Аудио #1: русский: 48000Hz 6ch 384 Kbps
Аудио #2: английский:48000Hz 6ch 384 Kbps
MediaInfo
General
Unique ID : 228644470107796291948529195529944079430 (0xAC0352BA9BB55CC7A357758ADD3A9C46)
Complete name : K:\Torrent1\Tipa.krutye.spartancy..mkv
Format : Matroska
Format version : Version 2
File size : 3.74 GiB
Duration : 1h 30mn
Overall bit rate : 5 893 Kbps
Movie name : IRONCLUB
Encoded date : UTC 2012-08-31 12:18:45
Writing application : mkvmerge v4.9.1 ('Ich will') сборка от Jul 11 2011 23:53:15
Writing library : libebml v1.2.1 + libmatroska v1.1.1

Video
ID : 1
Format : AVC
Format/Info : Advanced Video Codec
Format profile : High@L4.1
Format settings, CABAC : Yes
Format settings, ReFrames : 9 frames
Codec ID : V_MPEG4/ISO/AVC
Duration : 1h 30mn
Bit rate : 5 138 Kbps
Width : 1 280 pixels
Height : 720 pixels
Display aspect ratio : 16:9
Frame rate : 23.976 fps
Color space : YUV
Chroma subsampling : 4:2:0
Bit depth : 8 bits
Scan type : Progressive
Bits/(Pixel*Frame) : 0.233
Stream size : 3.18 GiB (85%)
Title : The.Legend.of.Awesomest.Maximus.2011.BluRay.720p.AC3.x264-CHD
Writing library : x264 core 120 r2146 bcd41db
Encoding settings : cabac=1 / ref=9 / deblock=1:-3:-3 / analyse=0x3:0x113 / me=umh / subme=10 / psy=1 / psy_rd=1.10:0.15 / mixed_ref=1 / me_range=32 / chroma_me=1 / trellis=2 / 8x8dct=1 / cqm=0 / deadzone=21,11 / fast_pskip=0 / chroma_qp_offset=-2 / threads=12 / sliced_threads=0 / nr=0 / decimate=1 / interlaced=0 / bluray_compat=0 / constrained_intra=0 / bframes=6 / b_pyramid=2 / b_adapt=2 / b_bias=0 / direct=3 / weightb=1 / open_gop=0 / weightp=2 / keyint=250 / keyint_min=23 / scenecut=40 / intra_refresh=0 / rc_lookahead=60 / rc=2pass / mbtree=0 / bitrate=5138 / ratetol=1.0 / qcomp=0.60 / qpmin=0 / qpmax=69 / qpstep=4 / cplxblur=20.0 / qblur=0.5 / vbv_maxrate=40000 / vbv_bufsize=30000 / nal_hrd=none / ip_ratio=1.40 / pb_ratio=1.30 / aq=1:0.80
Language : English
Default : Yes
Forced : Yes

Audio #1
ID : 2
Format : AC-3
Format/Info : Audio Coding 3
Mode extension : CM (complete main)
Codec ID : A_AC3
Duration : 1h 30mn
Bit rate mode : Constant
Bit rate : 384 Kbps
Channel(s) : 6 channels
Channel positions : Front: L C R, Side: L R, LFE
Sampling rate : 48.0 KHz
Bit depth : 16 bits
Compression mode : Lossy
Stream size : 250 MiB (7%)
Title : DD 5.1 @ 384 kbps - MVO, R5
Language : Russian
Default : Yes
Forced : Yes

Audio #2
ID : 3
Format : AC-3
Format/Info : Audio Coding 3
Mode extension : CM (complete main)
Codec ID : A_AC3
Duration : 1h 30mn
Bit rate mode : Constant
Bit rate : 384 Kbps
Channel(s) : 6 channels
Channel positions : Front: L C R, Side: L R, LFE
Sampling rate : 48.0 KHz
Bit depth : 16 bits
Compression mode : Lossy
Stream size : 250 MiB (7%)
Title : DD 5.1 @ 384 kbps
Language : English
Default : No
Forced : No

Text #1
ID : 4
Format : UTF-8
Codec ID : S_TEXT/UTF8
Codec ID/Info : UTF-8 Plain Text
Language : Russian
Default : No
Forced : No

Text #2
ID : 5
Format : UTF-8
Codec ID : S_TEXT/UTF8
Codec ID/Info : UTF-8 Plain Text
Language : English
Default : No
Forced : No


Свернуть

Скриншоты
Изображение
Изображение
Изображение
Изображение
Свернуть
Не в сети
Профиль  
Начать новую темуОтветить на тему  [ 1 сообщение ] 
Вы не можете начинать темы
Вы не можете отвечать на сообщения
Вы не можете редактировать свои сообщения
Вы не можете удалять свои сообщения