Правила форума

  • В этом разделе создание новых тем Запрещено.
  • Для создания новых тем пользуйтесь Корневым разделом DVD и HD фильмы.
Начать новую темуОтветить на тему  [ 1 сообщение ] 
Торрент файл
Размер: 10.31 GB • Зарегистрирован: 4 года 5 месяцев • Статус: T Временный релиз
Скачан: 95 раз • Желающих скачать: 0 • Поблагодарили: 12 раз
 Раздают: 0  |  0 KB/s  ]   Качают: 0  |  0 KB/s  ] 
 Полного источника не было 3 месяца 2 дня 
Сообщения
 Добавлено: 2012-06-23 21:58
Модератор релиз-группы
Аватара пользователя
Стаж: 9 лет 1 месяц
Возраст: 97
Сообщений: 11660
Спасибок: 6534
Лайков: 269
Тысяча слов / A Thousand Words

Изображение

Страна: США
Студия: DreamWorks SKG
Год выхода: 2012
Жанр: Драма, комедия
Продолжительность: 01:31:24
Перевод: Двухголосый закадровый [студия Райдо]

Режиссер: Брайан Роббинс

В ролях: Эдди Мёрфи, Керри Вашингтон, Эмануэл Рэгсдэйл, Джилл Бейси, Грег Коллинз, Роберт Лекванг, Майкл Дж. Уилкинсон, Линдси Нельсон, Майкл Коуди Гилберт, Лу Салиба

Описание: Главный герой - трепло, каких свет не видывал. И вот однажды этот говорливый персонаж узнаёт, что ему осталось произнести вслух ровно тысячу слов, после чего он обязательно умрёт…
Изображение
Формат: mkv
Качество: BDRip 1080p
Видео: 1920x800, 23.976 fps, 13.8 Mbps
Аудио 1: Russian: AC3, 448 Kbps (6 ch)
Аудио 2: 48000Hz 384 Kb/s (6 ch)
Аудио 3: English: DTS, 1510 Kbps (6 ch)
скриншоты
Изображение

Изображение

Изображение

Изображение
Свернуть
Mi
Format : Matroska
Format version : Version 2
File size : 10.3 GiB
Duration : 1h 31mn
Overall bit rate : 16.1 Mbps
Encoded date : UTC 2012-06-23 18:42:14
Writing application : mkvmerge v5.6.0 ('Kenya Kane') built on May 27 2012 16:44:04
Writing library : libebml v1.2.3 + libmatroska v1.3.0

Video
ID : 1
Format : AVC
Format/Info : Advanced Video Codec
Format profile : High@L4.1
Format settings, CABAC : Yes
Format settings, ReFrames : 5 frames
Codec ID : V_MPEG4/ISO/AVC
Duration : 1h 31mn
Bit rate : 13.8 Mbps
Width : 1 920 pixels
Height : 800 pixels
Display aspect ratio : 2.40:1
Frame rate : 23.976 fps
Color space : YUV
Chroma subsampling : 4:2:0
Bit depth : 8 bits
Scan type : Progressive
Bits/(Pixel*Frame) : 0.375
Stream size : 8.61 GiB (83%)
Title : A Thousand Words (2012)
Writing library : x264 core 125 r2200 999b753
Encoding settings : cabac=1 / ref=5 / deblock=1:-3:-3 / analyse=0x3:0x113 / me=umh / subme=11 / psy=1 / psy_rd=1.10:0.00 / mixed_ref=1 / me_range=48 / chroma_me=1 / trellis=2 / 8x8dct=1 / cqm=0 / deadzone=21,11 / fast_pskip=0 / chroma_qp_offset=-2 / threads=18 / lookahead_threads=3 / sliced_threads=0 / nr=0 / decimate=0 / interlaced=0 / bluray_compat=0 / constrained_intra=0 / bframes=8 / b_pyramid=2 / b_adapt=2 / b_bias=0 / direct=3 / weightb=1 / open_gop=0 / weightp=2 / keyint=240 / keyint_min=24 / scenecut=40 / intra_refresh=0 / rc_lookahead=120 / rc=2pass / mbtree=1 / bitrate=13800 / ratetol=1.0 / qcomp=0.70 / qpmin=0 / qpmax=69 / qpstep=4 / cplxblur=20.0 / qblur=0.5 / ip_ratio=1.40 / aq=1:0.95
Language : English
Default : Yes
Forced : No

Audio #1
ID : 2
Format : AC-3
Format/Info : Audio Coding 3
Mode extension : CM (complete main)
Format settings, Endianness : Big
Codec ID : A_AC3
Duration : 1h 31mn
Bit rate mode : Constant
Bit rate : 448 Kbps
Channel(s) : 6 channels
Channel positions : Front: L C R, Side: L R, LFE
Sampling rate : 48.0 KHz
Bit depth : 16 bits
Compression mode : Lossy
Stream size : 293 MiB (3%)
Title : AC3 448k
Language : Russian
Default : Yes
Forced : No

Audio #2
ID : 3
Format : AC-3
Format/Info : Audio Coding 3
Mode extension : CM (complete main)
Format settings, Endianness : Big
Codec ID : A_AC3
Duration : 1h 31mn
Bit rate mode : Constant
Bit rate : 384 Kbps
Channel(s) : 6 channels
Channel positions : Front: L C R, Side: L R, LFE
Sampling rate : 48.0 KHz
Bit depth : 16 bits
Compression mode : Lossy
Stream size : 251 MiB (2%)
Title : любительский одноголосый
Language : Russian
Default : No
Forced : No

Audio #3
ID : 4
Format : DTS
Format/Info : Digital Theater Systems
Codec ID : A_DTS
Duration : 1h 31mn
Bit rate mode : Constant
Bit rate : 1 510 Kbps
Channel(s) : 6 channels
Channel positions : Front: L C R, Side: L R, LFE
Sampling rate : 48.0 KHz
Bit depth : 24 bits
Compression mode : Lossy
Stream size : 988 MiB (9%)
Title : DTS 1510k
Language : English
Default : No
Forced : No

Menu
00:00:00.000 : en:00:00:00.000
00:07:33.870 : en:00:07:33.870
00:13:04.283 : en:00:13:04.283
00:21:34.627 : en:00:21:34.627
00:28:14.067 : en:00:28:14.067
00:34:47.585 : en:00:34:47.585
00:41:34.784 : en:00:41:34.784
00:46:32.123 : en:00:46:32.123
00:53:28.705 : en:00:53:28.705
01:00:09.231 : en:01:00:09.231
01:09:17.445 : en:01:09:17.445
01:14:51.862 : en:01:14:51.862
01:21:50.906 : en:01:21:50.906
01:26:46.034 : en:01:26:46.034


Свернуть
_________________
Изображение
Не в сети
Профиль  
Начать новую темуОтветить на тему  [ 1 сообщение ] 
Вы не можете начинать темы
Вы не можете отвечать на сообщения
Вы не можете редактировать свои сообщения
Вы не можете удалять свои сообщения