Правила форума

  • В этом разделе создание новых тем Запрещено.
  • Для создания новых тем пользуйтесь Корневым разделом DVD и HD фильмы.
Начать новую темуОтветить на тему  [ Сообщений: 2 ] 
Торрент файл
Размер: 6.88 GB • Зарегистрирован: 4 года 6 месяцев • Статус: Проверено
Скачан: 50 раз • Желающих скачать: 0 • Поблагодарили: 10 раз
 Раздают: 0  |  0 KB/s  ]   Качают: 0  |  0 KB/s  ] 
 Полного источника не было 2 года 2 месяца 
Сообщения
 Добавлено: 2012-05-13 21:13
Модератор
Аватара пользователя
Стаж: 8 лет 1 месяц
Сообщений: 1991
Спасибок: 129866
Лайков: 20
То, что её заводит / Få meg på, for faen

Изображение
Год выпуска: 2011
Страна: Изображение Норвегия
Жанр: мелодрама, комедия
Продолжительность:
01:12:33

Перевод: Профессиональный (многоголосый, закадровый) Лицензия

Режиссер: Яннике Систад Якобсен
Сценарий: Яннике Систад Якобсен, Olaug Nilssen
Продюсер: Бреде Ховланд
Оператор: Марианн Бакке
Композитор: Джиндж Анвик

В ролях:
Хелен Бергшолм (Alma), Малин Бьорховде (Sara), Генриетта Стинстрап (Alma's Mother), Беате Стефринг (Ingrid), Матиас Мюрен (Artur), Ларс Нордтвайт Лиштау (Kjartan), Йон Блейкле Девик (Sebjørn), Джулия Баке-Виг (Maria), Джулия Шахт (Elisabeth), Артур Бернинг (Terje), Hilde-Gunn Ommedal (Magda), Ole Johan Skjelbred-Knutsen (Turnip Factory Boss)

Описание: Альме 15 лет, ее самые «заводные» годы проходят в захолустном норвежском городке. Здесь тишина, покой и овечки на лугах - кошмар для барышни с чрезвычайно развитым воображением и непрекращающимся гормональным взрывом! Неудивительно, что Альма полностью погрузилась в эротические мечты, подогреваемые телефонной службой «Дикие и горячие фантазии». И только мама возвращает Альму к реальности, когда видит счета за «секс по телефону»!


Изображение: 5.340 (1 473)
Изображение: 6.20 (1 741)


Доп. Информация
Бюджет: NOK 17 500 000
Сборы в США: $58 081
Сборы в России: $20 776
Мировая премьера: 20 апреля 2011
Релиз на DVD: 7 мая 2012, «Новый Диск»

Свернуть

Релиз группы: Изображение
Качество: BDRip 720p R5

Формат: MKV
Видео: AVC; 1280x690 (1.855); 11433 Kbps; 25 fps; 0,518 bpp
Аудио №1: Russian; DTS; 1509 Kbps; CBR; 6 ch; 24 bit
Аудио №2: Norwegian; AC3; 640 Kbps; CBR; 6 ch; 16 bit
Субтитры: Russian
Изображение


BDInfo
General
Unique ID : 193293778802156427536500867193887005907 (0x916B07151C813090AAB898455D881CD3)
Complete name : То, что её заводит__Få meg på, for faen [2011.BDRip.720p.MVO.Nor.Sub]-HDChina.mkv
Format : Matroska
Format version : Version 2
File size : 6.88 GiB
Duration : 1h 12mn
Overall bit rate : 13.6 Mbps
Movie name : HQFans
Encoded date : UTC 2012-05-11 10:28:41
Writing application : mkvmerge v5.5.0 ('Healer') built on Apr 6 2012 21:43:24
Writing library : libebml v1.2.3 + libmatroska v1.3.0
Video
ID : 1
Format : AVC
Format/Info : Advanced Video Codec
Format profile : High@L4.1
Format settings, CABAC : Yes
Format settings, ReFrames : 9 frames
Codec ID : V_MPEG4/ISO/AVC
Duration : 1h 12mn
Bit rate : 11.4 Mbps
Width : 1 280 pixels
Height : 690 pixels
Display aspect ratio : 1.85:1
Frame rate : 25.000 fps
Color space : YUV
Chroma subsampling : 4:2:0
Bit depth : 8 bits
Scan type : Progressive
Bits/(Pixel*Frame) : 0.518
Stream size : 5.66 GiB (82%)
Title : То, что её заводит [2011, BDRip/720p]-HDChina
Writing library : x264 core 119 r2106 07efeb4
Encoding settings : cabac=1 / ref=9 / deblock=1:-3:-3 / analyse=0x3:0x133 / me=umh / subme=10 / psy=1 / psy_rd=1.00:0.10 / mixed_ref=1 / me_range=48 / chroma_me=1 / trellis=2 / 8x8dct=1 / cqm=0 / deadzone=21,11 / fast_pskip=0 / chroma_qp_offset=-3 / threads=12 / sliced_threads=0 / nr=0 / decimate=0 / interlaced=0 / bluray_compat=0 / constrained_intra=0 / bframes=6 / b_pyramid=2 / b_adapt=2 / b_bias=0 / direct=3 / weightb=1 / open_gop=0 / weightp=2 / keyint=360 / keyint_min=2 / scenecut=40 / intra_refresh=0 / rc_lookahead=60 / rc=2pass / mbtree=1 / bitrate=11433 / ratetol=1.0 / qcomp=0.70 / qpmin=0 / qpmax=69 / qpstep=4 / cplxblur=20.0 / qblur=0.5 / vbv_maxrate=50000 / vbv_bufsize=30000 / nal_hrd=none / ip_ratio=1.40 / aq=2:1.00
Language : Norwegian
Default : Yes
Forced : Yes
Audio #1
ID : 2
Format : DTS
Format/Info : Digital Theater Systems
Codec ID : A_DTS
Duration : 1h 12mn
Bit rate mode : Constant
Bit rate : 1 510 Kbps
Channel(s) : 6 channels
Channel positions : Front: L C R, Side: L R, LFE
Sampling rate : 48.0 KHz
Bit depth : 24 bits
Compression mode : Lossy
Stream size : 783 MiB (11%)
Title : MVO {R5} [DTS 5.1@1536kbps/24-bit]
Language : Russian
Default : Yes
Forced : Yes
Audio #2
ID : 3
Format : AC-3
Format/Info : Audio Coding 3
Mode extension : CM (complete main)
Format settings, Endianness : Big
Codec ID : A_AC3
Duration : 1h 12mn
Bit rate mode : Constant
Bit rate : 640 Kbps
Channel(s) : 6 channels
Channel positions : Front: L C R, Side: L R, LFE
Sampling rate : 48.0 KHz
Bit depth : 16 bits
Compression mode : Lossy
Stream size : 332 MiB (5%)
Title : Original [AC3 5.1@640kbps]
Language : Norwegian
Default : No
Forced : No
Text
ID : 4
Format : UTF-8
Codec ID : S_TEXT/UTF8
Codec ID/Info : UTF-8 Plain Text
Title : Full
Language : Russian
Default : No
Forced : No
Menu
00:00:00.000 : en:Chapter 1
00:04:28.279 : en:Chapter 2
00:08:22.599 : en:Chapter 3
00:13:54.280 : en:Chapter 4
00:18:11.480 : en:Chapter 5
00:22:26.680 : en:Chapter 6
00:27:22.760 : en:Chapter 7
00:31:31.560 : en:Chapter 8
00:36:17.000 : en:Chapter 9
00:41:03.440 : en:Chapter 10
00:44:53.000 : en:Chapter 11
00:49:55.040 : en:Chapter 12
00:53:57.080 : en:Chapter 13
00:58:43.760 : en:Chapter 14
01:03:24.880 : en:Chapter 15
01:09:45.400 : en:Chapter 16
Свернуть
Скриншоты
Изображение
Изображение
Изображение
Свернуть

_________________
Себе ты можешь не качать, но раздавать другим обязан!
Не в сети
Профиль  
 Добавлено: 2012-05-15 13:52 (спустя 1 день 16 часов)
Кинокомментатор
Аватара пользователя
Стаж: 9 лет 1 месяц
Сообщений: 1332
Лайков: 54
как кинцо то!?)
Не в сети
Профиль  
Начать новую темуОтветить на тему  [ Сообщений: 2 ] 
Вы не можете начинать темы
Вы не можете отвечать на сообщения
Вы не можете редактировать свои сообщения
Вы не можете удалять свои сообщения