Правила форума

  • В этом разделе создание новых тем Запрещено.
  • Для создания новых тем пользуйтесь Корневым разделом DVD и HD фильмы.
Начать новую темуОтветить на тему  [ Сообщений: 7 ] 
Торрент файл
Размер: 9.66 GB • Зарегистрирован: 3 года 10 месяцев • Статус: Проверено
Скачан: 388 раз • Желающих скачать: 0 • Поблагодарили: 96 раз
 Раздают: 0  |  0 KB/s  ]   Качают: 0  |  0 KB/s  ] 
 Полного источника не было 3 дня 
Сообщения
 Добавлено: 2013-02-06 18:06
Аватара пользователя
Стаж: 9 лет 1 месяц
Сообщений: 8018
Спасибок: 122264
Лайков: 1194
Толстяк на ринге / Here Comes the Boom

«Юмор в тяжёлом весе»

Изображение


Год выпуска: 2012
Страна: Изображение США
Жанр: боевик, комедия
Продолжительность: 01:44:55
Субтитры: Английские
Перевод: Профессиональный (полное дублирование)


Режиссёр: Фрэнк Корачи
Сценарист: Кевин Джеймс, Аллан Лоб, Рок Рубен
Продюсер: Тодд Гарнер, Кевин Джеймс, Марти П. Юинг
Оператор: Фил Мейхью
Композитор: Руперт Грегсон-Уильямс

В ролях: Кевин Джеймс, Сальма Хайек, Генри Уинклер, Грег Джерманн, Джо Роган, Гари Валентайн, Чарис Пемпенгко, Бас Раттен, Регги Ли, Муки Баркер, Джеки Флинн, Ники Тайлер Флинн, Мелисса Питерман, Томас С. Галлахер, Блейн Стивенс, Джонатан Майкл Траутмэнн, Джермейн Де Леон, Стивен Ричи, Шелли Десаи, Эрнестин Филлипс, Ричард Эрам, Филипп Стелла, Кшиштоф Сошинский, Ленни Кларк, Джейсон Миллер, Джефф Суссман, Ричи Минервини, Николас Туртурро, Крэйг Минервини

Описание: Учитель биологии в средней школе подрабатывает бойцом в смешанных боевых искусствах, пытаясь собрать деньги, чтобы сохранить школьную музыкальную программу.

Изображение Изображение

Качество: BDRip (1080p)
Формат: Matroska
Видео: MPEG-4 AVC, 11 Мбит/с, 1920x1040
Аудио №1: Русский (AC3, 6 ch, 384 Кбит/с)
Аудио №2: Английский (DTS, 6 ch, 1510 Кбит/с)

MediaInfo
Общее
Уникальный идентификатор : 173325489628588981699063199730443157623 (0x8265466A572DADD9BAB118C740230077)
Полное имя : H:\Tolstyj.na.Ringe.2012.D.BDRip1080p.nntt.org.mkv
Формат : Matroska
Версия формата : Version 4 / Version 2
Размер файла : 9,66 Гбайт
Продолжительность : 1 ч. 44 м.
Общий поток : 13,2 Мбит/сек
Дата кодирования : UTC 2013-02-06 01:49:05
Программа кодирования : mkvmerge v6.0.0 ('Coming Up For Air') built on Jan 20 2013 09:52:00
Библиотека кодирования : libebml v1.3.0 + libmatroska v1.4.0

Видео
Идентификатор : 1
Формат : AVC
Формат/Информация : Advanced Video Codec
Профиль формата : High@L4.1
Параметр CABAC формата : Да
Параметр ReFrames формата : 4 кадра
Идентификатор кодека : V_MPEG4/ISO/AVC
Продолжительность : 1 ч. 44 м.
Битрейт : 11,0 Мбит/сек
Ширина : 1920 пикселей
Высота : 1040 пикселей
Соотношение сторон : 1,85:1
Режим частоты кадров : Постоянный
Частота кадров : 23,976 кадра/сек
Цветовое пространство : YUV
Субдискретизация насыщенности : 4:2:0
Битовая глубина : 8 бит
Тип развёртки : Прогрессивная
Бит/(Пиксели*Кадры) : 0.230
Размер потока : 8,08 Гбайт (84%)
Библиотека кодирования : x264 core 129 r2230 1cffe9f
Настройки программы : cabac=1 / ref=4 / deblock=1:-3:-3 / analyse=0x3:0x113 / me=tesa / subme=10 / psy=1 / psy_rd=1.00:0.10 / mixed_ref=1 / me_range=24 / chroma_me=1 / trellis=2 / 8x8dct=1 / cqm=0 / deadzone=21,11 / fast_pskip=0 / chroma_qp_offset=-2 / threads=12 / lookahead_threads=2 / sliced_threads=0 / nr=0 / decimate=1 / interlaced=0 / bluray_compat=0 / constrained_intra=0 / bframes=4 / b_pyramid=2 / b_adapt=2 / b_bias=0 / direct=3 / weightb=1 / open_gop=0 / weightp=2 / keyint=250 / keyint_min=23 / scenecut=40 / intra_refresh=0 / rc_lookahead=60 / rc=crf / mbtree=1 / crf=18.0 / qcomp=0.60 / qpmin=0 / qpmax=69 / qpstep=4 / ip_ratio=1.40 / aq=2:1.00
Язык : English
Default : Да
Forced : Нет
Основные цвета : BT.709
Характеристики трансфера : BT.709
Коэффициенты матрицы : BT.709

Аудио #1
Идентификатор : 2
Формат : AC-3
Формат/Информация : Audio Coding 3
Расширение режима : CM (complete main)
Параметр Endianness формата : Big
Идентификатор кодека : A_AC3
Продолжительность : 1 ч. 44 м.
Вид битрейта : Постоянный
Битрейт : 384 Кбит/сек
Каналы : 6 каналов
Расположение каналов : Front: L C R, Side: L R, LFE
Частота : 48,0 КГц
Битовая глубина : 16 бит
Метод сжатия : С потерями
Размер потока : 288 Мбайт (3%)
Заголовок : RUS DUB
Язык : Russian
Default : Да
Forced : Нет

Аудио #2
Идентификатор : 3
Формат : DTS
Формат/Информация : Digital Theater Systems
Режим : 16
Параметр Endianness формата : Big
Идентификатор кодека : A_DTS
Продолжительность : 1 ч. 44 м.
Вид битрейта : Постоянный
Битрейт : 1509 Кбит/сек
Каналы : 6 каналов
Расположение каналов : Front: L C R, Side: L R, LFE
Частота : 48,0 КГц
Битовая глубина : 24 бит
Метод сжатия : С потерями
Размер потока : 1,11 Гбайт (11%)
Язык : English
Default : Нет
Forced : Нет

Текст
Идентификатор : 4
Формат : UTF-8
Идентификатор кодека : S_TEXT/UTF8
Идентификатор кодека/Информация : UTF-8 Plain Text
Язык : English
Default : Да
Forced : Нет

Меню
00:00:00.000 : en:00:00:00.000
00:08:41.896 : en:00:08:41.896
00:12:53.606 : en:00:12:53.606
00:18:21.934 : en:00:18:21.934
00:27:42.578 : en:00:27:42.578
00:34:16.888 : en:00:34:16.888
00:42:40.558 : en:00:42:40.558
00:49:34.847 : en:00:49:34.847
00:55:49.596 : en:00:55:49.596
01:02:05.972 : en:01:02:05.972
01:06:42.373 : en:01:06:42.373
01:11:09.557 : en:01:11:09.557
01:17:27.184 : en:01:17:27.184
01:22:00.040 : en:01:22:00.040
01:33:03.328 : en:01:33:03.328
01:38:50.466 : en:01:38:50.466
Свернуть
Знаете ли вы, что...
Кадры публики в сцене драки в MGM Grand были сняты в средней школе в старом Эверетте, штат Массачусетс, которую окончила Эллен Помпео в 1987 году. Так же это место использовалось для съемок фильма «Полиция Бостона» (2010).

Кевин Джеймс начал физическую подготовку к своей роли за 14 месяцев до съемок. Он сбросил около 70-80 фунтов.
Свернуть
Скриншоты
Изображение
Изображение
Изображение
Изображение
Изображение
Свернуть
Не в сети
Профиль  
 Добавлено: 2013-02-06 18:45 (спустя 39 минут)
Top-releaser
Аватара пользователя
Стаж: 8 лет 9 месяцев
Сообщений: 479
Спасибок: 20188
Лайков: 16
Помогу!
_________________
Изображение
Изображение
Не в сети
Профиль  
 Добавлено: 2013-02-06 18:55 (спустя 9 минут)
Аватара пользователя
Стаж: 9 лет 1 месяц
Сообщений: 8018
Спасибок: 122264
Лайков: 1194
Джокер
:co_ol:
Не в сети
Профиль  
 Добавлено: 2013-02-07 15:51 (спустя 20 часов)
Аватара пользователя
Стаж: 4 года 9 месяцев
Возраст: 29
Сообщений: 40
На последнем скрине справа, ведущий передачи "Фактор страха"?
Не в сети
Профиль  
 Добавлено: 2013-02-07 16:38 (спустя 47 минут)
Стаж: 5 лет 3 месяца
Сообщений: 151
Лайков: 2
Я верезжял как сучка когда смотрел этот наикрутейший фильмец!!!Супер!!!!
Не в сети
Профиль  
 Добавлено: 2013-02-09 16:31 (спустя 1 день 23 часа)
Стаж: 8 лет 1 месяц
Сообщений: 46
Спасибок: 1
psylocybine,да.Джо Роган.
Не в сети
Профиль  
 Добавлено: 2014-03-14 21:21 (спустя 1 год 1 месяц)
Аватара пользователя
Стаж: 5 лет 6 месяцев
Возраст: 23
Сообщений: 484
Спасибок: 1403
Лайков: 1
встаньте на раздачу :)
Не в сети
Профиль  
Начать новую темуОтветить на тему  [ Сообщений: 7 ] 
Вы не можете начинать темы
Вы не можете отвечать на сообщения
Вы не можете редактировать свои сообщения
Вы не можете удалять свои сообщения