Правила форума

  • В этом разделе создание новых тем Запрещено.
  • Для создания новых тем пользуйтесь Корневым разделом DVD и HD фильмы.
Начать новую темуОтветить на тему  [ Сообщений: 3 ] 
Торрент файл
Размер: 20.64 GB • Зарегистрирован: 3 года 9 месяцев • Статус: Проверено
Скачан: 37 раз • Желающих скачать: 0 • Поблагодарили: 19 раз
 Раздают: 0  |  0 KB/s  ]   Качают: 0  |  0 KB/s  ] 
 Полного источника не было 2 года 9 месяцев 
Сообщения
 Добавлено: 2013-02-07 06:27
Модератор релиз-группы
Аватара пользователя
Стаж: 6 лет 5 месяцев
Возраст: 25
Сообщений: 622
Спасибок: 10257
Лайков: 7
Толстяк на ринге / Here Comes the Boom

Изображение


Год выпуска: 2012
Страна: США
Жанр: боевик, комедия
Продолжительность: 01:44:55
Перевод: Профессиональный (полное дублирование)
Субтитры: Русские

Режиссёр: Фрэнк Корачи
В ролях: Кевин Джеймс, Сальма Хайек, Генри Уинклер, Грег Джерманн, Джо Роган, Гари Валентайн, Чарис Пемпенгко, Бас Раттен, Регги Ли, Марк ДеллаГротт
Описание: читель биологии в средней школе подрабатывает бойцом в смешанных боевых искусствах, пытаясь собрать деньги, чтобы сохранить школьную музыкальную программу.
Изображение 7,0/10 (3,359 votes)
Изображение 6,4/10 (15,760 votes)
Раздача группы: Изображение
Качество: Blu-Ray Remux (1080p)
Видео: MPEG-4 AVC, 24717 Кбит/с, 1920x1080
Аудио: Русский (АС3, 6 ch, 384 Кбит/с), английский (DTS-HD MА, 6 ch, 1510 Кбит/с)
Размер: 20.64 ГБ
BDInfo
Уникальный идентификатор : 249983385916442327254348566281243695522 (0xBC110C81AB0AAD00A05D5CA56BCD99A2)
Полное имя : E:\Here Comes the Boom 2012.Remux.mkv
Формат : Matroska
Версия формата : Version 2
Размер файла : 20,6 Гбайт
Продолжительность : 1 ч. 44 м.
Режим общего битрейта : Переменный
Общий поток : 28,2 Мбит/сек
Дата кодирования : UTC 2013-02-06 18:25:03
Программа кодирования : mkvmerge v5.7.0 ('The Whirlwind') built on Jul 8 2012 20:08:51
Библиотека кодирования : libebml v1.2.3 + libmatroska v1.3.0

Видео
Идентификатор : 1
Формат : AVC
Формат/Информация : Advanced Video Codec
Профиль формата : High@L4.1
Параметр CABAC формата : Да
Параметр ReFrames формата : 2 кадра
Идентификатор кодека : V_MPEG4/ISO/AVC
Продолжительность : 1 ч. 44 м.
Вид битрейта : Переменный
Битрейт : 25,7 Мбит/сек
Ширина : 1920 пикселей
Высота : 1080 пикселей
Соотношение сторон : 16:9
Частота кадров : 23,976 кадра/сек
Цветовое пространство : YUV
Субдискретизация насыщенности : 4:2:0
Битовая глубина : 8 бит
Тип развёртки : Прогрессивная
Бит/(Пиксели*Кадры) : 0.516
Размер потока : 18,8 Гбайт (91%)
Язык : English
Default : Да
Forced : Нет

Аудио #1
Идентификатор : 2
Формат : DTS
Формат/Информация : Digital Theater Systems
Профиль формата : MA / Core
Идентификатор кодека : A_DTS
Продолжительность : 1 ч. 44 м.
Вид битрейта : Переменный
Битрейт : 1561 Кбит/сек / 1510 Кбит/сек
Каналы : 6 каналов
Расположение каналов : Front: L C R, Side: L R, LFE
Частота : 48,0 КГц
Битовая глубина : 24 бит
Метод сжатия : Без потерь / Lossy
Язык : English
Default : Нет
Forced : Нет

Аудио #2
Идентификатор : 3
Формат : AC-3
Формат/Информация : Audio Coding 3
Расширение режима : CM (complete main)
Параметр Endianness формата : Big
Идентификатор кодека : A_AC3
Продолжительность : 1 ч. 44 м.
Вид битрейта : Постоянный
Битрейт : 384 Кбит/сек
Каналы : 6 каналов
Расположение каналов : Front: L C R, Side: L R, LFE
Частота : 48,0 КГц
Битовая глубина : 16 бит
Метод сжатия : С потерями
Размер потока : 288 Мбайт (1%)
Default : Да
Forced : Нет
Свернуть

Скриншоты
Изображение
Изображение
Изображение
Изображение
Изображение
Изображение
Свернуть
_________________
Изображение
Не в сети
Профиль  
 Добавлено: 2013-02-10 00:07 (спустя 2 дня 17 часов)
Пользователь забанен
Аватара пользователя
Стаж: 7 лет 5 месяцев
Сообщений: 89
Лайков: 2
Субтитры: Русские

Ну и где тут субтитры? МРС НС их что то не видит.
Не в сети
Профиль  
 Добавлено: 2013-02-10 00:09 (спустя 1 минута)
Стаж: 6 лет 2 месяца
Сообщений: 21
я хочу блевать,ральффффффффффф
Не в сети
Профиль  
Начать новую темуОтветить на тему  [ Сообщений: 3 ] 
Вы не можете начинать темы
Вы не можете отвечать на сообщения
Вы не можете редактировать свои сообщения
Вы не можете удалять свои сообщения