Правила форума

  • В этом разделе создание новых тем Запрещено.
  • Для создания новых тем пользуйтесь Корневым разделом DVD и HD фильмы.
Начать новую темуОтветить на тему  [ Сообщений: 3 ] 
Торрент файл
Размер: 5.34 GB • Зарегистрирован: 4 года 5 месяцев • Статус: Проверено
Скачан: 93 раза • Желающих скачать: 0 • Поблагодарили: 10 раз
 Раздают: 0  |  0 KB/s  ]   Качают: 0  |  0 KB/s  ] 
 Полного источника не было 1 год 6 месяцев 
Сообщения
 Добавлено: 2012-06-12 14:57
Модератор
Аватара пользователя
Стаж: 8 лет 1 месяц
Сообщений: 1991
Спасибок: 129867
Лайков: 20
Том Сойер / Tom Sawyer

Изображение
Год выпуска: 2011
Страна: Изображение Германия
Жанр: приключения, семейный
Продолжительность:
01:50:47

Перевод: Профессиональный (полное дублирование) Лицензия

Режиссер: Хермини Хунтгебурх
Сценарий: Peer Klehmet, Себастьян Велингс, Саша Аранго, Марк Твен
Продюсер: Борис Шёнфельдер, Корнелиус Конрад, Бенжамин Херрманн, Сьюзанн Куше
Оператор: Чау Нго
Композитор: Moritz Freise, Biber Gullatz, Андреас Шефер

В ролях:
Луис Хофманн (Tom Sawyer), Леон Зайдель (Huck Finn), Хайке Макатч (Tante Polly), Бенно Фюрманн (Indianer Joe), Йоахим Круль (Muff Potter), Питер Лохмайер (Richter Thatcher), Хиннерк Шонеманн (Sheriff), Сильвестр Грот (Doc Robinson), Томас Шмаузер (Reverend Sprague), Аднан Марал (Kumpan Indianer Joe), Andreas Warmbrunn (Sid), Мэгали Грейф (Becky Thatcher)
Дублёры: Валерий Сторожик (Richter Thatcher) (Richter Thatcher), Александр Рахленко (Sheriff) (Sheriff), Диомид Виноградов (Reverend Sprague) (Reverend Sprague), Прохор Чеховской (Sid) (Sid), Александра Остроухова (Becky Thatcher) (Becky Thatcher)

Описание: Кто не знает веселых забияк Тома Сойера и Гекльберри Финна, живущих на берегу реки Миссисипи? Верным друзьям всегда есть чем заняться: будь то игры в пиратов, кража яблок или варенья из чулана, рыбалка, а также подшучивания над взрослыми. Безудержная фантазия приводит Тома и Гека ночью на кладбище, где они становятся свидетелями таинственного преступления, с которого и начинаются невероятные приключения…


Изображение: 7.161 (319)
Изображение: 6.00 (104)


Доп. Информация
Сборы в России: $354 630
Сборы в мире: $2 593 000
Мировая премьера: 30 сентября 2011
Релиз на DVD: 12 июня 2012, «Парадиз Медиа»

Свернуть

Релиз группы: Изображение
Качество: BDRip 720p R5

Формат: MKV
Видео: AVC; 1280x544 (2.35:1); 4962 Kbps; 24 fps; 0,297 bpp
Аудио №1: Russian; AC3; 448 Kbps; CBR; 6 ch; 16 bit
Аудио №2: English; DTS; 1509 Kbps; CBR; 6 ch; 24 bit
Субтитры: German
Изображение


Знаете ли Вы, что...
  • Сцены в вымышленном американском городке Санкт-Петербурге снимались в Румынии, на берегу Дуная. В том же районе за восемь лет до этого проходили съёмки голливудской киноленты «Холодная гора», действие в которой тоже происходит в девятнадцатом веке в США.
  • Идея создания свежей немецкой экранизации «Приключений Тома Сойера» возникла у продюсера Бориса Шонфельдера после просмотра семейной киноленты «Руки прочь от Миссисипи» (2007).
  • Свою первую награду «Том Сойер» получил ещё до кинопрокатной премьеры. 22 сентября 2011 года в Лейпциге фильм был награждён наградой Гильдии кино. Вердикт жюри звучал так: «В глазах жюри в этой картине есть всё, что должен иметь хороший фильм для детей и юношества». Награду приняли исполнитель одной из главных ролей Леон Зайдель вместе с продюсерами Борисом Шонфельдером и Бенджамином Херманном.
  • В финансировании фильма участвовали немецкий Федеральный фонд кино, а также региональные фонды кино земель Северный Рейн-Вестфалия и Берлин-Бранденбург.
Свернуть
BDInfo
General
Complete name : Tom.Soyer.2011.D.BDRip.720p.[nntt.org].mkv
Format : Matroska
Format version : Version 2
File size : 5.34 GiB
Duration : 1h 50mn
Overall bit rate : 6 899 Kbps
Movie name : uniongang.tv
Encoded date : UTC 2012-06-08 13:44:43
Writing application : mkvmerge v5.0.1 ('Es ist Sommer') built on Nov 6 2011 16:23:40
Writing library : libebml v1.2.2 + libmatroska v1.3.0

Video
ID : 1
Format : AVC
Format/Info : Advanced Video Codec
Format profile : High@L4.1
Format settings, CABAC : Yes
Format settings, ReFrames : 12 frames
Codec ID : V_MPEG4/ISO/AVC
Duration : 1h 50mn
Bit rate : 4 962 Kbps
Width : 1 280 pixels
Height : 544 pixels
Display aspect ratio : 2.35:1
Frame rate : 24.000 fps
Color space : YUV
Chroma subsampling : 4:2:0
Bit depth : 8 bits
Scan type : Progressive
Bits/(Pixel*Frame) : 0.297
Stream size : 3.72 GiB (70%)
Writing library : x264 core 120 r2164+656 2ff844c
Encoding settings : cabac=1 / ref=12 / deblock=1:-3:-3 / analyse=0x3:0x113 / me=umh / subme=10 / psy=1 / fade_compensate=0.00 / psy_rd=1.05:0.10 / mixed_ref=1 / me_range=32 / chroma_me=1 / trellis=2 / 8x8dct=1 / cqm=0 / deadzone=21,11 / fast_pskip=0 / chroma_qp_offset=-2 / threads=12 / sliced_threads=0 / nr=0 / decimate=1 / interlaced=0 / bluray_compat=0 / constrained_intra=0 / fgo=0 / bframes=6 / b_pyramid=2 / b_adapt=2 / b_bias=0 / direct=3 / weightb=1 / open_gop=0 / weightp=2 / keyint=250 / keyint_min=24 / scenecut=40 / intra_refresh=0 / rc_lookahead=40 / rc=2pass / mbtree=0 / bitrate=4962 / ratetol=1.0 / qcomp=0.70 / qpmin=0 / qpmax=69 / qpstep=4 / cplxblur=20.0 / qblur=0.5 / vbv_maxrate=20000 / vbv_bufsize=30000 / nal_hrd=none / ip_ratio=1.40 / pb_ratio=1.30 / aq=2:1.00
Language : English
Default : No
Forced : No
Color primaries : BT.709-5, BT.1361, IEC 61966-2-4, SMPTE RP177
Transfer characteristics : BT.709-5, BT.1361
Matrix coefficients : BT.709-5, BT.1361, IEC 61966-2-4 709, SMPTE RP177

Audio #1
ID : 2
Format : AC-3
Format/Info : Audio Coding 3
Mode extension : CM (complete main)
Format settings, Endianness : Big
Codec ID : A_AC3
Duration : 1h 50mn
Bit rate mode : Constant
Bit rate : 448 Kbps
Channel(s) : 6 channels
Channel positions : Front: L C R, Side: L R, LFE
Sampling rate : 48.0 KHz
Bit depth : 16 bits
Compression mode : Lossy
Stream size : 355 MiB (6%)
Language : Russian
Default : Yes
Forced : Yes

Audio #2
ID : 3
Format : DTS
Format/Info : Digital Theater Systems
Codec ID : A_DTS
Duration : 1h 50mn
Bit rate mode : Constant
Bit rate : 1 510 Kbps
Channel(s) : 6 channels
Channel positions : Front: L C R, Side: L R, LFE
Sampling rate : 48.0 KHz
Bit depth : 24 bits
Compression mode : Lossy
Stream size : 1.17 GiB (22%)
Language : English
Default : No
Forced : No

Text
ID : 4
Format : UTF-8
Codec ID : S_TEXT/UTF8
Codec ID/Info : UTF-8 Plain Text
Language : German
Default : No
Forced : No
Свернуть
Скриншоты
Изображение
Изображение
Изображение
Изображение
Свернуть

_________________
Себе ты можешь не качать, но раздавать другим обязан!
Не в сети
Профиль  
 Добавлено: 2012-06-21 18:37 (спустя 9 дней)
Местный Агрессор
Аватара пользователя
Стаж: 9 лет
Возраст: 37
Сообщений: 31889
Спасибок: 1614
Лайков: 2404
Если это действительно похоже на книгу-огромнейший респект создателям и релизёру! Ну и М. Твену естественно!
В детстве перечитывал книгу раз 5-с удовольствием посмотрю экранизацию!
"-Том!
Нет ответа.
-ТОМ!
Нет ответа.
-Куда же он запропастился, этот мальчишка?! Томас!"
:) Блин, до сих пор помню начало. А прошло то уже лет 20. ..или больше..
_________________
Очень трудно с умным лицом слушать человека, которого мысленно ты уже трахаешь.
Не в сети
Профиль  
 Добавлено: 2012-06-23 22:26 (спустя 2 дня 3 часа)
Местный Агрессор
Аватара пользователя
Стаж: 9 лет
Возраст: 37
Сообщений: 31889
Спасибок: 1614
Лайков: 2404
Посмотрел. Неожиданно классно снято. ) Как книгу перечитал, за исключением нескольких моментов.
_________________
Очень трудно с умным лицом слушать человека, которого мысленно ты уже трахаешь.
Не в сети
Профиль  
Начать новую темуОтветить на тему  [ Сообщений: 3 ] 
Вы не можете начинать темы
Вы не можете отвечать на сообщения
Вы не можете редактировать свои сообщения
Вы не можете удалять свои сообщения