Правила форума

  • В этом разделе создание новых тем Запрещено.
  • Для создания новых тем пользуйтесь Корневым разделом DVD и HD фильмы.
Начать новую темуОтветить на тему  [ Сообщений: 9 ] 
Торрент файл
Размер: 27.79 GB • Зарегистрирован: 5 лет 2 месяца • Статус: Проверено
Скачан: 102 раза • Желающих скачать: 0 • Поблагодарили: 30 раз
 Раздают: 0  |  0 KB/s  ]   Качают: 0  |  0 KB/s  ] 
 Полного источника не было 3 года 2 месяца 
Сообщения
 Добавлено: 2011-09-08 17:56
Аватара пользователя
Стаж: 8 лет 11 месяцев
Возраст: 36
Сообщений: 440
Спасибок: 5166
Тор / Thor

Изображение Изображение Изображение
Изображение

Страна: США
Студия: Paramount Pictures
Жанр: фэнтези, боевик, драма, приключения
Год выпуска: 2011
Продолжительность: 01:54:50
Перевод: Дубляж
Cубтитры: Русские,английские...
Оригинальная аудиодорожка: Английский
Режиссер: Кеннет Брэна / Kenneth Branagh
В ролях: Натали Портман, Энтони Хопкинс, Крис Хемсворт, Том Хиддлстон, Стеллан Скарсгард, Кэт Деннингс, Кларк Грегг, Идрис Эльба, Колм Фиор, Рэй Стивенсон

Описание:
Эпическое приключение происходит как на нашей планете Земля, так и в вымышленном королевстве богов Асгарде. В центре истории — Могучий Тор, сильный, но высокомерный воин, чьи безрассудные поступки возрождают древнюю войну в Асгарде. Тора отправляют в ссылку на Землю, лишают сил и заставляют жить среди обычных людей в качестве наказания. Тор узнает, сколько требуется сил, чтобы стать настоящим героем, когда самый опасный злодей его мира направляет темные силы поглотить Землю.

Изображение Изображение
Тип релиза: Blu-ray Disc
Контейнер: BDMV
Видео: MPEG-4 AVC Video 27278 kbps 1080p / 23.976 fps / 16:9 / High Profile 4.1
Аудио:
DTS-HD Master Audio English 4928 kbps 7.1 / 48 kHz / 4928 kbps / 24-bit (DTS Core: 5.1-ES / 48 kHz / 1509 kbps / 24-bit)
Dolby Digital Audio Russian 640 kbps 5.1 / 48 kHz / 640 kbps / DN -4dB
Субтитры: Russian

Big thnx to HDRoad!

Семпл для Билайн (лок.)
Семпл для остальных

"Media Info"
General
ID : 1 (0x1)
Complete name : D:\1\BDMV\STREAM\00000.m2ts
Format : BDAV
Format/Info : Blu-ray Video
File size : 27.8 GiB
Duration : 1h 54mn
Overall bit rate : 34.6 Mbps
Maximum Overall bit rate : 35.5 Mbps

Video
ID : 4113 (0x1011)
Menu ID : 1 (0x1)
Format : AVC
Format/Info : Advanced Video Codec
Format profile : High@L4.1
Format settings, CABAC : Yes
Format settings, ReFrames : 4 frames
Format settings, GOP : M=1, N=6
Codec ID : 27
Duration : 1h 54mn
Bit rate mode : Variable
Bit rate : 31.0 Mbps
Maximum bit rate : 32.0 Mbps
Width : 1 920 pixels
Height : 1 080 pixels
Display aspect ratio : 16:9
Frame rate : 23.976 fps
Color space : YUV
Chroma subsampling : 4:2:0
Bit depth : 8 bits
Scan type : Progressive
Bits/(Pixel*Frame) : 0.624
Stream size : 24.9 GiB (90%)

Audio #1
ID : 4352 (0x1100)
Menu ID : 1 (0x1)
Format : DTS
Format/Info : Digital Theater Systems
Format profile : MA / Core
Muxing mode : Stream extension
Codec ID : 134
Duration : 1h 54mn
Bit rate mode : Variable
Bit rate : 1 606 Kbps / 1 510 Kbps
Channel(s) : 8 channels / 6 channels
Channel positions : Front: L C R, Side: L R, Back: L R, LFE / Front: L C R, Side: L R, LFE
Sampling rate : 48.0 KHz
Bit depth : 24 bits
Compression mode : Lossless / Lossy
Language : English

Audio #2
ID : 4353 (0x1101)
Menu ID : 1 (0x1)
Format : AC-3
Format/Info : Audio Coding 3
Mode extension : CM (complete main)
Codec ID : 129
Duration : 1h 54mn
Bit rate mode : Constant
Bit rate : 640 Kbps
Channel(s) : 6 channels
Channel positions : Front: L C R, Side: L R, LFE
Sampling rate : 48.0 KHz
Bit depth : 16 bits
Compression mode : Lossy
Stream size : 526 MiB (2%)
Language : Russian

Text
ID : 4608 (0x1200)
Menu ID : 1 (0x1)
Format : PGS
Codec ID : 144
Language : Russian



Свернуть
"Скриншоты"
Изображение
Изображение
Изображение
Изображение
Изображение
Изображение
Изображение
Изображение
Изображение
Изображение
Свернуть
"Полиграфия"
"Премиум"
Изображение
Изображение
Свернуть
Изображение
Изображение
Изображение
Изображение Изображение
Изображение Изображение Изображение Изображение Изображение Изображение Изображение
Изображение
Изображение
Изображение
Изображение
Изображение
Свернуть

Абоненты Билайн НН не забывайте прописывать ретрекер:

http://fttb.retracker.nnov.ru:666/announce

http://195.98.50.122/announce


Последний раз редактировалось timosh 2011-09-12 21:01, всего редактировалось 11 раз(а).
Не в сети
Профиль  
 Добавлено: 2011-09-08 17:59 (спустя 2 минуты)
Аватара пользователя
Стаж: 6 лет 9 месяцев
Сообщений: 46
Спасибок: 61
Я только не много не понял. озвучка русская???
Не в сети
Профиль  
 Добавлено: 2011-09-09 07:05 (спустя 13 часов)
Аватара пользователя
Стаж: 8 лет 11 месяцев
Возраст: 36
Сообщений: 440
Спасибок: 5166
В связи со скорым выходом 2D/3D версии, выкладывать 2D версию не вижу смысла.
Но ремукс просится :) - разница в 17GB


Последний раз редактировалось timosh 2011-09-09 14:45, всего редактировалось 1 раз.
Не в сети
Профиль  
 Добавлено: 2011-09-09 07:18 (спустя 12 минут)
Аватара пользователя
Стаж: 8 лет 3 месяца
Возраст: 43
Сообщений: 3290
Спасибок: 21012
Лайков: 3
timosh
жду BDInfo и сэмпл :)
_________________
Изображение
Не в сети
Профиль  
 Добавлено: 2011-09-09 22:09 (спустя 14 часов)
Аватара пользователя
Стаж: 7 лет 2 месяца
Сообщений: 119
Лайков: 2
timosh
Спасибо, качаю. :)
Не в сети
Профиль  
 Добавлено: 2011-09-11 10:03 (спустя 1 день 11 часов)
Аватара пользователя
Стаж: 8 лет 11 месяцев
Возраст: 36
Сообщений: 440
Спасибок: 5166
Любителям 3D


Кому надо забираем.
Не в сети
Профиль  
 Добавлено: 2012-12-30 21:39 (спустя 1 год 3 месяца)
Аватара пользователя
Стаж: 5 лет 3 месяца
Сообщений: 199
Хватит жадничать!!!
Раздавайте уже
_________________
[url=http://avtomasterdzr.a5.ru/#/Главная]Автосервис это Я[/url]
Не в сети
Профиль  
 Добавлено: 2013-01-04 21:18 (спустя 4 дня)
Стаж: 4 года 3 месяца
Сообщений: 5
timosh
А что такое то, что ты написал
Абоненты Билайн НН не забывайте прописывать ретрекер:

http://fttb.retracker.nnov.ru:666/announce

http://195.98.50.122/announce

Я просто не понимаю что это и где прописывать?
Не в сети
Профиль  
 Добавлено: 2013-01-04 21:18 (спустя 0 секунд)
Стаж: 4 года 3 месяца
Сообщений: 5
timosh
А что такое то, что ты написал
Абоненты Билайн НН не забывайте прописывать ретрекер:

http://fttb.retracker.nnov.ru:666/announce

http://195.98.50.122/announce

Я просто не понимаю что это и где прописывать?
Не в сети
Профиль  
Начать новую темуОтветить на тему  [ Сообщений: 9 ] 
Вы не можете начинать темы
Вы не можете отвечать на сообщения
Вы не можете редактировать свои сообщения
Вы не можете удалять свои сообщения