Правила форума

  • В этом разделе создание новых тем Запрещено.
  • Для создания новых тем пользуйтесь Корневым разделом DVD и HD фильмы.
Начать новую темуОтветить на тему  [ Сообщений: 12 ] 
Торрент файл
Размер: 10.51 GB • Зарегистрирован: 5 лет 3 месяца • Статус: Проверено
Скачан: 689 раз • Желающих скачать: 0 • Поблагодарили: 125 раз
 Раздают: 1  |  0 KB/s  ]   Качают: 0  |  0 KB/s  ] 
Сообщения
 Добавлено: 2011-09-09 12:03
Руководитель релиз-группы
Аватара пользователя
Стаж: 8 лет 6 месяцев
Возраст: 25
Сообщений: 7578
Спасибок: 51914
Лайков: 14
Тор
Thor

Изображение

Год выпуска: 2011
Страна: США
Слоган: «Мужество бессмертно»

Жанр: фэнтези, боевик, приключения
Продолжительность: 01:54:50
Перевод: Профессиональный (полное дублирование)
Режиссер: Кеннет Брана
В ролях: Натали Портман, Энтони Хопкинс, Крис Хемсворт, Том Хиддлстон, Стеллан Скарсгард, Кэт Деннингс, Кларк Грегг, Идрис Эльба, Колм Фиор, Рэй Стивенсон

Бюджет: $150 000 000
Сборы в США: $181 030 624
Сборы в России: $16 542 497
Сборы в мире: $448 494 201

Мировая премьера: 21 апреля 2011
Релиз на DVD: Октябрь 2011, «Юниверсал Пикчерс Рус»
Описание: Эпическое приключение происходит как на нашей планете Земля, так и в вымышленном королевстве богов Асгарде. В центре истории - Могучий Тор, сильный, но высокомерный воин, чьи безрассудные поступки возрождают древнюю войну в Асгарде. Тора отправляют в ссылку на Землю, лишают сил и заставляют жить среди обычных людей в качестве наказания
Изображение 7.2/10 (79,142 users) Изображение 7.133 (16 619)
MPAA: Изображение - Детям до 13 лет просмотр не желателен

Качество: BDRip 1080p
Формат: MKV
Видео: MPEG4 Video (H264) 1920x816 23.98fps 10.7 Mbps
Аудио: Russian: AC3, 48 kHz, 640 kb/s (6 ch) / English: DTS, 48 kHz, 1510 kb/s (6 ch)
"Скриншоты"

Изображение
Изображение
Изображение
Свернуть
MediaInfo
General
Complete name                    : D:\Tor.2011.BDRip.1080p.mkv
Format                           : Matroska
File size                        : 10.5 GiB
Duration                         : 1h 54mn
Overall bit rate                 : 13.1 Mbps
Movie name                       : Thor (2011) Release for Uniongang.tv
Encoded date                     : UTC 2011-09-09 08:38:58
Writing application              : mkvmerge v4.0.0 ('The Stars were mine') сборка от Jun 18 2010 16:54:49
Writing library                  : libebml v1.0.0 + libmatroska v1.0.0

Video
ID                               : 1
Format                           : AVC
Format/Info                      : Advanced Video Codec
Format profile                   : High@L4.1
Format settings, CABAC           : Yes
Format settings, ReFrames        : 5 frames
Muxing mode                      : Container profile=Unknown@4.1
Codec ID                         : V_MPEG4/ISO/AVC
Duration                         : 1h 54mn
Bit rate                         : 10.7 Mbps
Nominal bit rate                 : 11.0 Mbps
Width                            : 1 920 pixels
Height                           : 816 pixels
Display aspect ratio             : 2.35:1
Frame rate                       : 23.976 fps
Resolution                       : 24 bits
Colorimetry                      : 4:2:0
Scan type                        : Progressive
Bits/(Pixel*Frame)               : 0.285
Stream size                      : 8.57 GiB (82%)
Writing library                  : x264 core 116 r2057+604 5ec0ca0
Encoding settings                : cabac=1 / ref=5 / deblock=1:-3:-3 / analyse=0x3:0x113 / me=umh / subme=10 / psy=1 / fade_compensate=0.00 / psy_rd=1.05:0.10 / mixed_ref=1 / me_range=48 / chroma_me=1 / trellis=2 / 8x8dct=1 / cqm=2 / deadzone=21,11 / fast_pskip=0 / chroma_qp_offset=-2 / threads=8 / sliced_threads=0 / nr=0 / decimate=1 / interlaced=0 / bluray_compat=0 / constrained_intra=0 / fgo=0 / bframes=6 / b_pyramid=2 / b_adapt=2 / b_bias=0 / direct=3 / weightb=1 / open_gop=0 / weightp=2 / keyint=250 / keyint_min=23 / scenecut=40 / intra_refresh=0 / rc_lookahead=60 / rc=2pass / mbtree=1 / bitrate=10951 / ratetol=1.0 / qcomp=0.70 / qpmin=1 / qpmax=63 / qpstep=4 / cplxblur=20.0 / qblur=0.5 / vbv_maxrate=45000 / vbv_bufsize=40000 / nal_hrd=none / ip_ratio=1.40 / aq=2:1.00

Audio #1
ID                               : 2
Format                           : AC-3
Format/Info                      : Audio Coding 3
Codec ID                         : A_AC3
Duration                         : 1h 54mn
Bit rate mode                    : Constant
Bit rate                         : 640 Kbps
Channel(s)                       : 6 channels
Channel positions                : Front: L C R, Surround: L R, LFE
Sampling rate                    : 48.0 KHz
Stream size                      : 526 MiB (5%)
Title                            : DD 5.1 @ 640 kb/s - DUB, BD CEE
Language                         : Russian

Audio #2
ID                               : 3
Format                           : DTS
Format/Info                      : Digital Theater Systems
Format profile                   : ES
Codec ID                         : A_DTS
Duration                         : 1h 54mn
Bit rate mode                    : Constant
Bit rate                         : 1 510 Kbps
Channel(s)                       : 6 channels
Channel positions                : Front: L C R, Surround: L R, LFE
Sampling rate                    : 48.0 KHz
Resolution                       : 24 bits
Video delay                      : 11ms
Stream size                      : 1.21 GiB (12%)
Title                            : DTS-ES 5.1 @ 1536 kb/s

Text #1
ID                               : 4
Format                           : UTF-8
Codec ID                         : S_TEXT/UTF8
Codec ID/Info                    : UTF-8 Plain Text
Title                            : Full

Text #2
ID                               : 5
Format                           : UTF-8
Codec ID                         : S_TEXT/UTF8
Codec ID/Info                    : UTF-8 Plain Text
Title                            : SDH

Text #3
ID                               : 6
Format                           : PGS
Codec ID                         : S_HDMV/PGS
Codec ID/Info                    : The same subtitle format used on BDs/HD-DVDs
Title                            : Full BD CEE
Language                         : Russian

Menu
00:00:00.000                     : :00:00:00.000
00:10:38.137                     : :00:10:38.137
00:17:33.135                     : :00:17:33.135
00:26:02.603                     : :00:26:02.603
00:32:28.196                     : :00:32:28.196
00:37:28.413                     : :00:37:28.413
00:42:14.198                     : :00:42:14.198
00:52:10.377                     : :00:52:10.377
01:01:24.973                     : :01:01:24.973
01:08:45.538                     : :01:08:45.538
01:15:39.160                     : :01:15:39.160
01:21:19.249                     : :01:21:19.249
01:30:35.347                     : :01:30:35.347
01:40:58.177                     : :01:40:58.177
01:45:13.724                     : :01:45:13.724
01:53:06.196                     : :01:53:06.196

Свернуть
Не в сети
Профиль  
 Добавлено: 2011-09-09 17:57 (спустя 5 часов)
Top-seeder
Аватара пользователя
Стаж: 9 лет 1 месяц
Возраст: 27
Сообщений: 1170
Спасибок: 1626
Лайков: 15
Привет любителям СГ-1 :)
Не в сети
Профиль  
 Добавлено: 2011-09-09 21:42 (спустя 3 часа)
Стаж: 8 лет 6 месяцев
Сообщений: 6
К сожалению Телевизор не производит звук :(
Не в сети
Профиль  
 Добавлено: 2011-09-10 11:52 (спустя 14 часов)
Аватара пользователя
Стаж: 5 лет 3 месяца
Сообщений: 17
наконец та!!! спасибо! :)
_________________
Не бойтесь делать то, что не умеете. Помните, ковчег построил любитель, — профессионалы построили Титаник.
Не в сети
Профиль  
 Добавлено: 2011-09-10 19:09 (спустя 7 часов)
Модератор
Аватара пользователя
Стаж: 8 лет 10 месяцев
Возраст: 27
Сообщений: 1478
Спасибок: 1768
Лайков: 1
Не ожидал, но фильм хорош! Балдел от шикарной картинки
Не в сети
Профиль  
 Добавлено: 2011-09-11 01:39 (спустя 6 часов)
Аватара пользователя
Стаж: 8 лет 9 месяцев
Возраст: 27
Сообщений: 3804
Спасибок: 2218
1920x816
За что... Изображение
_________________
Backloggery
Изображение
Свернуть
Stats
Изображение
Свернуть
Не в сети
Профиль  
 Добавлено: 2011-09-11 07:47 (спустя 6 часов)
Аватара пользователя
Стаж: 7 лет 11 месяцев
Сообщений: 64
:'( почему нет DVD.....?
Не в сети
Профиль  
 Добавлено: 2011-09-11 13:58 (спустя 6 часов)
Аватара пользователя
Стаж: 8 лет 10 месяцев
Сообщений: 703
Спасибок: 11142
Лайков: 2
Качество супер. советутю. И фильм классный.
Не в сети
Профиль  
 Добавлено: 2011-09-11 15:11 (спустя 1 час 13 минут)
Модератор релиз-группы
Аватара пользователя
Стаж: 9 лет 1 месяц
Возраст: 97
Сообщений: 11660
Спасибок: 6533
Лайков: 269

Pavlin:

1920x816
За что... Изображение
за кинотеатр ;)
_________________
Изображение
Не в сети
Профиль  
 Добавлено: 2011-09-16 16:20 (спустя 5 дней)
Аватара пользователя
Стаж: 8 лет 11 месяцев
Сообщений: 124
Спасибок: 804

Pavlin:

1920x816
За что... Изображение
и что такого печального? ну срезали чёрные полосы сверхи и снизу и вместо 1080 получили 816, только и всего))
Не в сети
Профиль  
 Добавлено: 2011-09-16 17:40 (спустя 1 час 19 минут)
Аватара пользователя
Стаж: 8 лет 9 месяцев
Возраст: 27
Сообщений: 3804
Спасибок: 2218

Mixa_DZR:

и что такого печального?
ПС3 запустит картинку как есть, чем вернёт мне эти самые черные полосы.
Не в сети
Профиль  
 Добавлено: 2013-08-20 20:08 (спустя 1 год 11 месяцев)
Аватара пользователя
Стаж: 8 лет 1 месяц
Возраст: 26
Сообщений: 132
Лайков: 1
:ry_car: :ry_car: :ry_car: НАРОД, ВСТАНЬТЕ ПОЖАЛУЙСТА НА РАЗДАЧУ :ry_car: :ry_car: :ry_car:
Не в сети
Профиль  
Начать новую темуОтветить на тему  [ Сообщений: 12 ] 
Вы не можете начинать темы
Вы не можете отвечать на сообщения
Вы не можете редактировать свои сообщения
Вы не можете удалять свои сообщения