Правила форума

  • В этом разделе создание новых тем Запрещено.
  • Для создания новых тем пользуйтесь Корневым разделом DVD и HD фильмы.
Начать новую темуОтветить на тему  [ Сообщений: 3 ] 
Торрент файл
Размер: 6.08 GB • Зарегистрирован: 5 лет 3 месяца • Статус: Проверено
Скачан: 245 раз • Желающих скачать: 0 • Поблагодарили: 41 раз
 Раздают: 0  |  0 KB/s  ]   Качают: 0  |  0 KB/s  ] 
 Полного источника не было 3 дня 
Сообщения
 Добавлено: 2011-09-09 12:38
Руководитель релиз-группы
Аватара пользователя
Стаж: 7 лет 2 месяца
Возраст: 4
Сообщений: 5213
Спасибок: 19351
Лайков: 2312
Тор
Thor

Изображение

Год выпуска: 2011
Страна: США
Слоган: «Мужество бессмертно»

Жанр: фэнтези, боевик, приключения
Продолжительность: 01:54:50
Перевод: Профессиональный (полное дублирование)
Режиссер: Кеннет Брана
В ролях: Натали Портман, Энтони Хопкинс, Крис Хемсворт, Том Хиддлстон, Стеллан Скарсгард, Кэт Деннингс, Кларк Грегг, Идрис Эльба, Колм Фиор, Рэй Стивенсон

Бюджет: $150 000 000
Сборы в США: $181 030 624
Сборы в России: $16 542 497
Сборы в мире: $448 494 201

Мировая премьера: 21 апреля 2011
Релиз на DVD: Октябрь 2011, «Юниверсал Пикчерс Рус»
Описание: Эпическое приключение происходит как на нашей планете Земля, так и в вымышленном королевстве богов Асгарде. В центре истории - Могучий Тор, сильный, но высокомерный воин, чьи безрассудные поступки возрождают древнюю войну в Асгарде. Тора отправляют в ссылку на Землю, лишают сил и заставляют жить среди обычных людей в качестве наказания
Изображение 7.2/10 (79,142 users) Изображение 7.133 (16 619)
MPAA: Изображение - Детям до 13 лет просмотр не желателен

Качество: BDRip 720p
Формат: MKV
Видео: 5410 kb/s, 1280x544
Аудио: Russian: AC3, 640 kb/s (6 ch) / English: DTS, 1510 kb/s (6 ch)
Размер: 6.07 Gb
"Скриншоты"

Изображение
Изображение
Изображение
Свернуть
MediaInfo
General
UniqueID                         : 250132656487492766189482427690617593229 (0xBC2DCC1D2728516F955281BB34A6DD8D)
Complete name                    : Tor.2011.D.BDRip.720p.UNIONGANG.TV.mkv
Format                           : Matroska
File size                        : 6.08 GiB
Duration                         : 1h 54mn
Overall bit rate                 : 7 585 Kbps
Movie name                       : Thor (2011) Release for Uniongang.tv
Encoded date                     : UTC 2011-09-09 04:23:30
Writing application              : mkvmerge v4.9.1 ('Ich will') сборка от Jul 11 2011 23:53:15
Writing library                  : libebml v1.2.1 + libmatroska v1.1.1

Video
ID                               : 1
Format                           : AVC
Format/Info                      : Advanced Video Codec
Format profile                   : High@L4.1
Format settings, CABAC           : Yes
Format settings, ReFrames        : 12 frames
Codec ID                         : V_MPEG4/ISO/AVC
Duration                         : 1h 54mn
Bit rate                         : 5 410 Kbps
Width                            : 1 280 pixels
Height                           : 544 pixels
Display aspect ratio             : 2.35:1
Frame rate                       : 23.976 fps
Color space                      : YUV
Chroma subsampling               : 4:2:0
Bit depth                        : 8 bits
Scan type                        : Progressive
Bits/(Pixel*Frame)               : 0.324
Stream size                      : 4.24 GiB (70%)
Title                            : Thor (2011) Release for Uniongang.tv
Writing library                  : x264 core 116 r2074kMod 2641b9e
Encoding settings                : cabac=1 / ref=12 / deblock=1:-3:-3 / analyse=0x3:0x133 / me=tesa / subme=10 / psy=1 / fade_compensate=0.80 / psy_rd=1.10:0.00 / mixed_ref=1 / me_range=24 / chroma_me=1 / trellis=2 / 8x8dct=1 / cqm=0 / deadzone=21,11 / fast_pskip=0 / chroma_qp_offset=-2 / threads=6 / sliced_threads=0 / nr=0 / decimate=0 / interlaced=0 / bluray_compat=0 / constrained_intra=0 / bframes=7 / b_pyramid=2 / b_adapt=2 / b_bias=0 / direct=3 / weightb=1 / open_gop=0 / weightp=2 / keyint=250 / keyint_min=23 / scenecut=40 / intra_refresh=0 / rc_lookahead=250 / rc=2pass / mbtree=1 / bitrate=5410 / ratetol=1.0 / qcomp=0.70 / qpmin=0 / qpmax=69 / qpstep=4 / cplxblur=20.0 / qblur=0.5 / vbv_maxrate=50000 / vbv_bufsize=62500 / nal_hrd=none / ip_ratio=1.40 / aq=1:1.00
Language                         : English

Audio #1
ID                               : 2
Format                           : AC-3
Format/Info                      : Audio Coding 3
Mode extension                   : CM (complete main)
Codec ID                         : A_AC3
Duration                         : 1h 54mn
Bit rate mode                    : Constant
Bit rate                         : 640 Kbps
Channel(s)                       : 6 channels
Channel positions                : Front: L C R, Side: L R, LFE
Sampling rate                    : 48.0 KHz
Bit depth                        : 16 bits
Compression mode                 : Lossy
Stream size                      : 526 MiB (8%)
Title                            : DD 5.1 @ 640 kb/s - DUB, BD CEE
Language                         : Russian

Audio #2
ID                               : 3
Format                           : DTS
Format/Info                      : Digital Theater Systems
Format profile                   : ES
Codec ID                         : A_DTS
Duration                         : 1h 54mn
Bit rate mode                    : Constant
Bit rate                         : 1 510 Kbps
Channel(s)                       : 6 channels
Channel positions                : Front: L C R, Side: L R, LFE
Sampling rate                    : 48.0 KHz
Bit depth                        : 24 bits
Compression mode                 : Lossy
Stream size                      : 1.21 GiB (20%)
Title                            : DTS-ES 5.1 @ 1536 kb/s
Language                         : English

Text #1
ID                               : 4
Format                           : PGS
Codec ID                         : S_HDMV/PGS
Codec ID/Info                    : The same subtitle format used on BDs/HD-DVDs
Title                            : Full BD CEE
Language                         : Russian

Text #2
ID                               : 5
Format                           : UTF-8
Codec ID                         : S_TEXT/UTF8
Codec ID/Info                    : UTF-8 Plain Text
Title                            : Full
Language                         : English

Text #3
ID                               : 6
Format                           : UTF-8
Codec ID                         : S_TEXT/UTF8
Codec ID/Info                    : UTF-8 Plain Text
Title                            : SDH
Language                         : English

Menu
00:00:00.000                     : :00:00:00.000
00:10:38.137                     : :00:10:38.137
00:17:33.135                     : :00:17:33.135
00:26:02.603                     : :00:26:02.603
00:32:28.196                     : :00:32:28.196
00:37:28.413                     : :00:37:28.413
00:42:14.198                     : :00:42:14.198
00:52:10.377                     : :00:52:10.377
01:01:24.973                     : :01:01:24.973
01:08:45.538                     : :01:08:45.538
01:15:39.160                     : :01:15:39.160
01:21:19.249                     : :01:21:19.249
01:30:35.347                     : :01:30:35.347
01:40:58.177                     : :01:40:58.177
01:45:13.724                     : :01:45:13.724
01:53:06.196                     : :01:53:06.196

Свернуть
_________________
Изображение

Изображение
 di-ys1 и rotametr нравится это.
Не в сети
Профиль  
 Добавлено: 2011-09-13 15:51 (спустя 4 дня)
Аватара пользователя
Стаж: 7 лет 1 месяц
Возраст: 23
Сообщений: 13
Отпишите плиз Как фильм?
_________________
Изображение Изображение
Как так можно...в живого человека ПиСькоЙ тыКатЬxD
Не в сети
Профиль  
 Добавлено: 2011-09-17 10:41 (спустя 3 дня)
Стаж: 7 лет 1 месяц
Сообщений: 5
стремный файл
этот мкв хреново оцифрован телевизор его не воспроизводит качайте что нить другое
Не в сети
Профиль  
Начать новую темуОтветить на тему  [ Сообщений: 3 ] 
Вы не можете начинать темы
Вы не можете отвечать на сообщения
Вы не можете редактировать свои сообщения
Вы не можете удалять свои сообщения