Правила форума

  • В этом разделе создание новых тем Запрещено.
  • Для создания новых тем пользуйтесь Корневым разделом DVD и HD фильмы.
Начать новую темуОтветить на тему  [ Сообщений: 5 ] 
Торрент файл
Размер: 12.36 GB • Зарегистрирован: 5 лет 1 месяц • Статус: Проверено
Скачан: 279 раз • Желающих скачать: 0 • Поблагодарили: 32 раза
 Раздают: 0  |  0 KB/s  ]   Качают: 0  |  0 KB/s  ] 
 Полного источника не было 2 года 3 месяца 
Сообщения
 Добавлено: 2011-10-05 22:19
Руководитель релиз-группы
Аватара пользователя
Стаж: 8 лет 6 месяцев
Возраст: 25
Сообщений: 7578
Спасибок: 51910
Лайков: 14
Изображение

Трансформеры 3: Тёмная сторона Луны
Transformers: Dark of the Moon


Год выпуска: 2011
Страна: США
Слоган: «Последний шанс цивилизации»

Жанр: фантастика, боевик, приключения
Продолжительность: 02:34:23
Перевод: Профессиональный (Дублированный)
Режиссер: Майкл Бэй
В ролях: Шайа ла Баф, Джош Дюамель, Джон Туртурро, Тайриз Гибсон, Роузи Хантингтон-Уайтли, Патрик Демпси, Кевин Данн, Джули Уайт, Хьюго Уивинг, Кен Жонг, Джон Малкович и др.
Бюджет: $195 000 000
Сборы в США: $351 991 232
Сборы в России: $44 991 020
Сборы в мире: $1 118 603 296

Мировая премьера: 25 июня 2011
Описание:Для наших героев наступили печальные будни: Сэм потерял Микаэлу, правительство выпускает законодательный акт о выселении Автоботов с Земли, а пока Мегатрон скрывается после позорного поражения Фоллена, десептикон Шокуэйв, правитель Кибертрона, готовится нанести визит нашей планете с совсем недобрыми намерениями. Действие заключительной части трилогии на этот раз охватит не только Землю, но и Луну, темная сторона которой хранит не менее темные тайны.
Изображение 6.6/10 (67,321 votes) Изображение 7.206 (25 052)
MPAA: Изображение - Детям до 13 лет просмотр не желателен
Релиз: Изображение
Качество: BDRip 720p / HQRip / BDRip 1080p
Формат: MKV

Видео: x264 9567 kb/s 1280x534 / 23.976 fps / High Profile 4.1
Аудио: AC3, 384 kb/s (6 ch) 48 kHz
Аудио: DTS, 1510 kb/s (6 ch) 48 kHz
"Знаете ли Вы, что..."
  • Мировая премьера фильма состоялась в Москве в рамках Московского международного кинофестиваля 23 июня 2011 года.
  • Из-за конфликта с режиссером фильма Меган Фокс была вынуждена покинуть проект.
  • 1 миллион американских долларов был потрачен в течение двух съемочных дней в Художественном музее Милуоки.
  • Майкл Бэй - единственный режиссер, которому было разрешено дважды снять запуск космического шатла («Армагеддон» и «Трансформеры 3»).
  • Трансформеры созданы компанией по производству игрушек Hasbro в 1984 году, позже ставших медиаимперией из мультсериалов и комиксов. Сегодня права на комиксы Трансформеров принадлежат издательству IDW и они дополняют как кинофраншизу, так и оригинальную вселенную Трансформеров.
  • Сентинел Прайм (озвучивал в оригинале Леонард Нимой) перед финальной битвой с Оптимусом говорит: «Потребности большинства перекрывают потребности меньшинства». Примечательно, что это фраза является фразой Спока («Звёздный путь»), роль которого исполнял Леонард Нимой.
  • Главными претендентками на роль Карли были Бруклин Декер и Сара Райт. Также её могли сыграть Джемма Артертон, Эшли Грин, Миранда Керр, Бар Рафаэли, Эмбер Херд, Камилла Белль, Кэти Кэссиди, Хайди Монтаг и Анна Кендрик.
  • Майклу Бэю достается 8% от продаж всей мерчандайзинговой продукции - игрушек, сувениров, комиксов - связанной с фильмом. К оригинальным игрушкам Трансформеров, не брендированных в стиле кинофраншизы, это не относится.
  • Во время съемок автомобильной сцены в штате Индиана лопнул буксировочный трос. Оторвавшись, он тяжело ранил водительницу. Габриэла Седийо осталась в живых, но лишилась глаза, получила серьезное повреждение головного мозга и оказалась наполовину парализована.
Свернуть
"Скриншоты"

Изображение
Изображение
Изображение
Свернуть
MediaInfo
General
Complete name : Transformers.Dark.of.the.Moon.2011.D.720p.BDRip.[uniongang.tv].mkv
Format : Matroska
File size : 12.4 GiB
Duration : 2h 34mn
Overall bit rate : 11.5 Mbps
Movie name : uniongang.tv
Encoded date : UTC 2011-10-05 16:41:54
Writing application : mkvmerge v3.4.0 ('Rapunzel') сборка от May 15 2010 09:38:20
Writing library : libebml v0.8.0 + libmatroska v0.9.0

Video
ID : 1
Format : AVC
Format/Info : Advanced Video Codec
Format profile : High@L4.1
Format settings, CABAC : Yes
Format settings, ReFrames : 12 frames
Codec ID : V_MPEG4/ISO/AVC
Duration : 2h 34mn
Bit rate : 9 567 Kbps
Width : 1 280 pixels
Height : 534 pixels
Display aspect ratio : 2.35:1
Frame rate : 23.976 fps
Color space : YUV
Chroma subsampling : 4:2:0
Bit depth : 8 bits
Scan type : Progressive
Bits/(Pixel*Frame) : 0.584
Stream size : 10.1 GiB (81%)
Title : Transformers.Dark.of.the.Moon.2011.720p.BluRay.DTS.x264-HiDt
Writing library : x264 core 118 r2085 8a62835
Encoding settings : cabac=1 / ref=12 / deblock=1:-2:-2 / analyse=0x3:0x113 / me=tesa / subme=11 / psy=1 / psy_rd=0.97:0.05 / mixed_ref=1 / me_range=32 / chroma_me=1 / trellis=2 / 8x8dct=1 / cqm=0 / deadzone=21,11 / fast_pskip=0 / chroma_qp_offset=-3 / threads=12 / sliced_threads=0 / nr=0 / decimate=1 / interlaced=0 / bluray_compat=0 / constrained_intra=0 / bframes=6 / b_pyramid=2 / b_adapt=2 / b_bias=0 / direct=3 / weightb=1 / open_gop=0 / weightp=2 / keyint=250 / keyint_min=23 / scenecut=40 / intra_refresh=0 / rc_lookahead=125 / rc=2pass / mbtree=1 / bitrate=9567 / ratetol=1.0 / qcomp=0.60 / qpmin=0 / qpmax=69 / qpstep=4 / cplxblur=20.0 / qblur=0.5 / vbv_maxrate=40000 / vbv_bufsize=40000 / nal_hrd=none / ip_ratio=1.40 / aq=2:0.90 / zones=211000,222097,b=0.1
Language : English

Audio #1
ID : 2
Format : AC-3
Format/Info : Audio Coding 3
Mode extension : CM (complete main)
Codec ID : A_AC3
Duration : 2h 34mn
Bit rate mode : Constant
Bit rate : 384 Kbps
Channel(s) : 6 channels
Channel positions : Front: L C R, Side: L R, LFE
Sampling rate : 48.0 KHz
Bit depth : 16 bits
Stream size : 424 MiB (3%)
Title : DUB
Language : Russian

Audio #2
ID : 3
Format : DTS
Format/Info : Digital Theater Systems
Codec ID : A_DTS
Duration : 2h 34mn
Bit rate mode : Constant
Bit rate : 1 510 Kbps
Channel(s) : 6 channels
Channel positions : Front: L C R, Side: L R, LFE
Sampling rate : 48.0 KHz
Bit depth : 24 bits
Stream size : 1.63 GiB (13%)
Title : Original
Language : English

Text #1
ID : 4
Format : UTF-8
Codec ID : S_TEXT/UTF8
Codec ID/Info : UTF-8 Plain Text
Title : Russian
Language : Russian

Text #2
ID : 5
Format : UTF-8
Codec ID : S_TEXT/UTF8
Codec ID/Info : UTF-8 Plain Text
Title : English
Language : English

Text #3
ID : 6
Format : UTF-8
Codec ID : S_TEXT/UTF8
Codec ID/Info : UTF-8 Plain Text
Language : Bulgarian

Menu
00:00:00.000 : en:Chapter 01
00:08:52.573 : en:Chapter 02
00:14:26.615 : en:Chapter 03
00:20:20.928 : en:Chapter 04
00:28:48.143 : en:Chapter 05
00:36:18.634 : en:Chapter 06
00:45:18.549 : en:Chapter 07
00:51:53.026 : en:Chapter 08
00:56:34.224 : en:Chapter 09
01:04:13.307 : en:Chapter 10
01:12:56.705 : en:Chapter 11
01:19:09.077 : en:Chapter 12
01:23:41.391 : en:Chapter 13
01:28:44.819 : en:Chapter 14
01:35:13.082 : en:Chapter 15
01:42:44.158 : en:Chapter 16
01:49:12.337 : en:Chapter 17
01:56:42.912 : en:Chapter 18
02:04:59.116 : en:Chapter 19
02:11:29.590 : en:Chapter 20
02:19:10.884 : en:Chapter 21
02:25:37.520 : en:Chapter 22
Свернуть
Не в сети
Профиль  
 Добавлено: 2011-10-07 12:15 (спустя 1 день 13 часов)
Аватара пользователя
Стаж: 7 лет 10 месяцев
Сообщений: 88
Фильм чума просто ...
Не в сети
Профиль  
 Добавлено: 2012-01-07 10:19 (спустя 2 месяца 30 дней)
Модератор
Аватара пользователя
Стаж: 6 лет 6 месяцев
Возраст: 37
Сообщений: 583
Спасибок: 3133
Лайков: 91
А тут правильный перевод?, а то я в них запутался, были трансформеры с плохим переводом, потом правильный появился.
Не в сети
Профиль  
 Добавлено: 2012-01-10 12:12 (спустя 3 дня)
Аватара пользователя
Стаж: 8 лет 6 месяцев
Сообщений: 105
Спасибок: 1
Лайков: 4
почему у меня на мультимедиа плеере на английском всё??(((
Не в сети
Профиль  
 Добавлено: 2012-07-18 13:41 (спустя 6 месяцев)
Аватара пользователя
Стаж: 6 лет
Сообщений: 20
газку плиzzz :)
Не в сети
Профиль  
Начать новую темуОтветить на тему  [ Сообщений: 5 ] 
Вы не можете начинать темы
Вы не можете отвечать на сообщения
Вы не можете редактировать свои сообщения
Вы не можете удалять свои сообщения