Правила форума

  • В этом разделе создание новых тем Запрещено.
  • Для создания новых тем пользуйтесь Корневым разделом DVD и HD фильмы.
Начать новую темуОтветить на тему  [ Сообщений: 4 ] 
Торрент файл
Размер: 13.83 GB • Зарегистрирован: 5 лет 10 месяцев • Статус: Проверено
Скачан: 458 раз • Желающих скачать: 0 • Поблагодарили: 69 раз
 Раздают: 0  |  0 KB/s  ]   Качают: 0  |  0 KB/s  ] 
 Полного источника не было 1 месяц 9 дней 
Сообщения
 Добавлено: 2011-01-23 14:40
Аватара пользователя
Стаж: 8 лет
Возраст: 30
Сообщений: 846
Спасибок: 982
Лайков: 1
Трансформеры: Месть падших / Transformers: Revenge of the Fallen

Изображение


Год выпуска:
2009
Страна: США, DreamWorks SKG
Жанр: фантастика, боевик, приключения
Продолжительность: 02:30:24
Перевод: Профессиональный (полное дублирование) (с лицензии)
Русские субтитры: есть (с лицензии)

Режиссер: Майкл Бэй / Michael Bay

В ролях: Шайа ЛаБаф, Меган Фокс, Изабель Лукас, Джош Дюамель, Хьюго Уивинг, Майкл Пападжон, Джон Туртурро, Америка Оливо, Рэйн Уилсон, Фрэнк Уэлкер

Описание: Прошло два года с тех пор, как юный Сэм Уитвикки спас Вселенную, предотвратив глобальную битву между враждующими воинственными расами инопланетных роботов. Несмотря на свои героические подвиги, Сэм остается обычным подростком с обычными проблемами — поступление в колледж и родителями. Разумеется, отъезд будет тяжело воспринят лучшим другом, роботом — телохранителем Бамблби.
Сэм изо всех сил пытается забыть о конфликте в Мишн Сити и вернуться к нормальной жизни. Однако битва между Автоботами и Десептиконами, несмотря на гриф полной секретности, многое изменила…

Доп инфо: Данная версия фильма включает IMAX сцены. Она длиннее почти на 30 секунд.
IMAX сцены это сцены снятые на специальную IMAX камеру они имеют разрешение 1920х1080


Качество: BDRip
Формат: MKV
Видео кодек: MPEG-4/AVC
Аудио кодек: AC3, DTS
Видео: 1920x1080, 23.976 fps, ~10.7 Mbps, MPEG-4/AVC
Аудио #1: Русский, AC3, 6ch, 48 kHz, 448 kbps
Аудио #2: Английский, DTS, 6ch, 48 kHz, 1536 kbps
Аудио #3: Английский (Комментарии), AC3, 2ch, 48 kHz, 224 kbps
Субтитры: Русские, Английские
MediaInfo
Общее
Уникальный идентификатор : 187550671954060992360480588673409234186 (0x8D18F20DA3CC1E9C9FC5FC104642350A)
Полное имя : F:\Трансформеры - Месть падших 1080p.mkv
Формат : Matroska
Размер файла : 13,8 Гбайт
Продолжительность : 2 ч. 30 м.
Общий поток : 13,2 Мбит/сек
Дата кодирования : UTC 2009-11-05 20:33:34
Программа кодирования : mkvmerge v2.6.0 ('Kelly watch the Stars') built on Mar 24 2009 15:23:17
Библиотека кодирования : libebml v0.7.7 + libmatroska v0.8.1

Видео
Идентификатор : 1
Формат : AVC
Формат/Информация : Advanced Video Codec
Профиль формата : High@L4.1
Параметр CABAC формата : Да
Параметр ReFrames формата : 4 кадры
Идентификатор кодека : V_MPEG4/ISO/AVC
Продолжительность : 2 ч. 30 м.
Битрейт : 11,0 Мбит/сек
Ширина : 1920 пикс.
Высота : 1080 пикс.
Соотношение сторон : 16:9
Частота кадров : 23,976 кадр/сек
Цветовое пространство : YUV
Подвыборка цветности : 4:2:0
Битовая глубина : 8 бит
Тип развёртки : Прогрессивная
Бит/(Пиксели*Кадры) : 0.221
Размер потока : 11,3 Гбайт (81%)
Библиотека кодирования : x264 core 75 r1259M dd026f2
Настройки программы : cabac=1 / ref=4 / deblock=1:0:0 / analyse=0x3:0x2 / me=umh / subme=7 / psy=1 / psy_rd=1.0:0.0 / mixed_ref=1 / me_range=16 / chroma_me=1 / trellis=1 / 8x8dct=1 / cqm=0 / deadzone=21,11 / chroma_qp_offset=-2 / threads=12 / nr=0 / decimate=1 / mbaff=0 / bframes=3 / b_pyramid=1 / b_adapt=1 / b_bias=0 / direct=1 / wpredb=1 / keyint=250 / keyint_min=25 / scenecut=40 / rc=2pass / mbtree=0 / bitrate=10979 / ratetol=1.0 / qcomp=0.60 / qpmin=10 / qpmax=51 / qpstep=4 / cplxblur=20.0 / qblur=0.5 / ip_ratio=1.40 / pb_ratio=1.30 / aq=1:1.00 / pulldown=0 / nal_hrd=0
Язык : English

Аудио #1
Идентификатор : 2
Формат : AC-3
Формат/Информация : Audio Coding 3
Расширение режима : CM (complete main)
Идентификатор кодека : A_AC3
Продолжительность : 2 ч. 30 м.
Вид битрейта : Постоянный
Битрейт : 448 Кбит/сек
Канал(ы) : 6 канала(ов)
Расположение каналов : Front: L C R, Side: L R, LFE
Частота : 48,0 КГц
Битовая глубина : 16 бит
Метод сжатия : С потерями
Размер потока : 482 Мбайт (3%)
Язык : Russian

Аудио #2
Идентификатор : 3
Формат : DTS
Формат/Информация : Digital Theater Systems
Идентификатор кодека : A_DTS
Продолжительность : 2 ч. 30 м.
Вид битрейта : Постоянный
Битрейт : 1510 Кбит/сек
Канал(ы) : 6 канала(ов)
Расположение каналов : Front: L C R, Side: L R, LFE
Частота : 48,0 КГц
Битовая глубина : 24 бит
Метод сжатия : С потерями
Размер потока : 1,59 Гбайт (11%)
Язык : English

Аудио #3
Идентификатор : 4
Формат : AC-3
Формат/Информация : Audio Coding 3
Расширение режима : CM (complete main)
Идентификатор кодека : A_AC3
Продолжительность : 2 ч. 30 м.
Вид битрейта : Постоянный
Битрейт : 224 Кбит/сек
Канал(ы) : 2 канала(ов)
Расположение каналов : Front: L R
Частота : 48,0 КГц
Битовая глубина : 16 бит
Метод сжатия : С потерями
Размер потока : 241 Мбайт (2%)
Заголовок : Комментарии
Язык : English

Текст #1
Идентификатор : 5
Формат : UTF-8
Идентификатор кодека : S_TEXT/UTF8
Идентификатор кодека/Информация : UTF-8 Plain Text
Язык : Russian

Текст #2
Идентификатор : 6
Формат : UTF-8
Идентификатор кодека : S_TEXT/UTF8
Идентификатор кодека/Информация : UTF-8 Plain Text
Язык : English


Свернуть
Скриншоты
Изображение
Изображение
Изображение
Изображение
Свернуть
_________________
Я в контакте !


Последний раз редактировалось gecsogen 2011-01-26 14:32, всего редактировалось 2 раз(а).
Не в сети
Профиль  
 Добавлено: 2011-01-23 15:22 (спустя 42 минуты)
Аватара пользователя
Стаж: 6 лет
Возраст: 26
Сообщений: 113
Спасибок: 691
Mediainfo забыл)
Не в сети
Профиль  
 Добавлено: 2011-01-23 15:45 (спустя 22 минуты)
Аватара пользователя
Стаж: 8 лет
Возраст: 30
Сообщений: 846
Спасибок: 982
Лайков: 1
OxOTHuK52
Ой точно ) ща добавлю
_________________
Я в контакте !
Не в сети
Профиль  
 Добавлено: 2011-01-25 01:26 (спустя 1 день 9 часов)
Аватара пользователя
Стаж: 8 лет 3 месяца
Возраст: 43
Сообщений: 3290
Спасибок: 21012
Лайков: 3
gecsogen
Название темы: Русское название (опционально, в скобках: альтернативные русские названия через запятую) / Оригинальное название / опционально: англоязычное название (полное имя режиссера) [год выпуска, жанры через запятую, качество] Опция. Пример: Клятва / Wu ji / The Promise (Чен Кайге) [2005 г., Драма, Фэнтази, DVDRip]
_________________
Изображение
Не в сети
Профиль  
Начать новую темуОтветить на тему  [ Сообщений: 4 ] 
Вы не можете начинать темы
Вы не можете отвечать на сообщения
Вы не можете редактировать свои сообщения
Вы не можете удалять свои сообщения