Правила форума

  • В этом разделе создание новых тем Запрещено.
  • Для создания новых тем пользуйтесь Корневым разделом DVD и HD фильмы.
Начать новую темуОтветить на тему  [ Сообщений: 16 ] 
Торрент файл
Размер: 23.3 GB • Зарегистрирован: 4 года 7 месяцев • Статус: Проверено
Скачан: 608 раз • Желающих скачать: 0 • Поблагодарили: 186 раз
 Раздают: 2  |  2 MB/s  ]   Качают: 1  |  2 MB/s  ] 
Сообщения
 Добавлено: 2012-05-03 21:16
Модератор
Аватара пользователя
Стаж: 5 лет 8 месяцев
Сообщений: 6281
Спасибок: 17342
Лайков: 1633
Изображение

Трансформеры / Transformers

Изображение
Трансформеры
Transformers


«Наш мир. Их война»


Изображение
 Год выпуска: 2007
 Страна: США
 Жанр: фантастика | боевик

Перевод: Профессиональный (полное дублирование) | Субтитры (Русские, английские)

 Режиссер: Майкл Бэй

 Авторы сценария: Роберто Орси • Алекс Куртцман • Джон Роджерс
 Продюсеры: Дон Мерфи • Йен Брюс • Том ДеСанто
 Оператор: Митчел Амундсен
 Композитор: Стив Яблонски

 В ролях: Шайа ЛаБаф • Меган Фокс • Джош Дюамель • Тайриз Гибсон • Рэйчел Тейлор • Энтони Андерсон • Джон Войт • Джон Туртурро • Майкл О’Нил

 Описание: В течение многих столетий две расы роботов-инопланетян — Автоботы и Десептиконы — вели войну, ставкой в которой была судьба Bселенной. И вот война докатилась до Земли. В то время, когда силы зла ищут ключ к верховной власти, наш последний шанс на спасение находится в руках юного землянина. Единственное, что стоит между несущими зло Десептиконами и высшей властью — это ключ, находящийся в руках простого парнишки.
 Обычный подросток, Сэм Уитвикки озабочен повседневными хлопотами — школа, друзья, машины, девочки. Не ведая о том, что он является последним шансом человечества на спасение, Сэм вместе со своей подругой Микаэлой оказывается вовлеченным в противостояние Автоботов и Десептиконов. Только тогда Сэм понимает истинное значение семейного девиза Уитвикки — «без жертв нет победы!»


Доп. информация

Бюджет: $150 000 000 | Сборы: $708 272 581 | Премьера: 12 июня 2007

Рейтинг PG-13 — Parents strongly cautioned. Дети до 13 лет допускаются на фильм только с родителями
Изображение
 Настоятельное предостережение родителям. Некоторый материал может быть неподходящим для детей до 13 лет. Данный рейтинг показывает, что оценённый фильм может быть неподходящим для детей. Родители должны быть особенно осторожны, разрешая своим маленьким детям просмотр. Грубое или продолжительное насилие отсутствует; сексуальная ориентация на наготу отсутствует; некоторые сцены употребления наркотиков могут присутствовать; можно услышать единичные употребления грубой сексуальной лексики.
Свернуть

Свернуть
Знаете ли вы, что...

  • Слоган к фильму «Наш мир. Их война» должен был появиться на постерах к картине «Чужой против хищника», но в самый последний момент был заменен на «Кто бы не победил… мы проиграем».
  • По словам создателей спецэффектов из ILM на рендеринг каждого кадра с CGI-анимацией тратилось около 38 часов. Прежним рекордом владела студия Weta Workshop, в ходе работы над фильмом «Властелин колец: Две башни» тратившая на обработку кадра по 20 часов.
  • Продюсер картины Дон Мерфи после общения с фанатами френчайза, решил прибегнуть к использованию хорошо знакомых голосов из сериала «Трансформеры». Ветераны Питер Каллен и Фрэнк Уелкер, голосами которых разговаривали лидеры трансформеров – Оптимус Прайм и Мегатрон, прослушивались персонально самим Майклом Бэем, боявшимся, что их постаревшие голоса могут не подойти. Опасения оправдались ровно на половину: голос Каллена был утвержден, а голос Уелкера был заменен на голос Хьюго Уивинга, известного по роли агента Смита в «Матрице».
  • В первоначальный вариант сценария была включена Арси (Arcee), считавшаяся одним из самых женственных автоботов, что не вызвало ни малейшего ажиотажа среди фанатов. Вскоре Арси исчезла из сценария и была заменена на Айронхайда (Ironhide).
  • В мультипликационном варианте Бамблби трансформировался из автомобиля Фольксваген Жук, однако в киноверсии Фольксваген заменили на Шевроле Камаро. Сделано это было по желанию Майкла Бэя, боявшегося сравнения персонажа с другим известным «автомобильным киножуком» - Херби. Фанаты оригинального сериала наверняка заметят желтый Фольксваген в сцене покупки Сэмом автомобиля.
  • Майкл Бэй, которого пригласили режиссировать фильм, сначала счел будущую картину «глупой игрушечной историей», но вскоре передумал, после того, как вспомнил о своем первоначальном отношении к проекту «Индиана Джонс», ставшему в 1981 году настоящим хитом проката. В апреле 2005 года он был официально заявлен режиссером проекта, обогнав кандидата Роланда Эммериха.
  • Первый комикс о трансформерах был выпущен в 1984 году компанией Marvel Comics. Первоначально планировалось всего четыре выпуска.
  • Продюсер фильма Стивен Спилберг не заплатил ни одному актеру больше 70.000 долларов, пообещав высокие гонорары в последующих сиквелах.
  • Над спецэффектами фильма работала команда из 80-ти человек.
  • В картине Майкла Бэя Оптимус Прайм предстает в виде тягача Peterbilt 379. В ранней картине исполнительного продюсера «Трансформеров» Стивена Спилберга «Дуэль» (1971) главным действующим героем также был тягач Peterbilt 281.
  • Звуки трансформации позаимствованы из одноименного мультсериала 1984 года.
  • Согласно высказываниям Лоренцо ди Бонавентуры, все трансформации роботов были тщательно просчитаны математически. Таким образом, внимательные зрители могут понять, куда уходит каждая составная часть робота при обратной трансформации в транспортное средство.
  • Мегатрону решили сделать лицо, мало напоминающее человеческое, чтобы придать данному персонажу еще более грозный вид.
  • Пушка Айронхайда состоит из 10 тысяч деталей.
  • В первой версии сценария фигурировал персонаж Рэведж (Ravage – уничтожение), роботоподное животное, сражающееся за Десептиконов. Позднее от Рэведжа избавились и включили в сценарий другое трансформирующееся существо - Скорпонока. Именно Скорпонок атакует выживших американских военных в одной из сцен первой половины картины.
  • В первых вариантах сценария был прописан персонаж Юникорн, представляющий собой планету-трансформер. Ожидается, что этот персонаж получит право на кинематографическую жизнь в сиквеле.
  • В фильме представлено 8 десептиконов и 5 автоботов. На сей шаг авторы сценария пошли намеренно, чтобы подчеркнуть работу автоботов в команде, а также показать, насколько опасна угроза завоевания нашей планеты десептиконами.
  • Еще один момент, перекочевавший из сериала в фильм,- глаза трансформеров: cиние у автоботов, и красные у десептиконов.
  • В комнате Сэма можно увидить плакат рок-группы Linkin Park, именно сингл этой группы What I've Donе является темой для фильма.
  • Ровно на 60 минуте, парень бегущий с камерой к месту падения метеорита кричит «Я такой крутизны еще не видел, все вокруг взрывается, это точно в сто раз круче армагеддона». Фильм Армагеддон снял также Майкл Бэй.
  • Во время синхронного разворота автоботов на шоссе, видно, что Оптимус начинает его первым и за ним встает Джаз. Однако потом Оптимус Прайм едет последним.
  • По данному фильму была сделана одноименная игра.
  • Для создания первой части «Трансформеров» пришлось задействовать 20 Тб дискового пространства серверов. Для работы над вторым фильмом едва хватило 145 Тб. Для сравнения, 145 Тб – это объем 35000 DVD-дисков.
  • Изначально Майкл Бэй не хотел брать Шайю ЛаБафа на роль Сэма, так как считал, что актер слишком стар для этой роли.
  • Десептикон Брол (Brawl) — модифицированный танк «M1 Abrams», первоначально был назван «Devastator», но позже Бэй признал ошибку и десептикона переименовали в Брола. Несмотря на это, в DVD-версии сохранился неисправленный субтитр «Devastator reporting».

Свернуть
Награды и премии

 Оскар, 2008 год
Номинации (3):
  • Лучший звук
  • Лучший монтаж звука
  • Лучшие визуальные эффекты

 Премия канала «MTV», 2008 год
Победитель (1):
  • Лучший фильм
Номинации (2):
  • Прорыв года (Меган Фокс)
  • Лучшая мужская роль (Шайа ЛаБаф)

 Премия канала «MTV», 2007 год
Победитель (1):
  • Лучший фильм лета, который вы еще не видели

Свернуть
MediaInfo
Общее
Уникальный идентификатор : 226975140234865952711915210619267930104 (0xAAC1D26969D9C6CCA14309E96ADD57F8)
Полное имя : Transformers.2007.BDRip.1080p.Rus.Eng.mkv
Формат : Matroska
Версия формата : Version 2
Размер файла : 7,77 Гбайт
Продолжительность : 2 ч. 23 м.
Общий поток : 7752 Кбит/сек
Название фильма : Трансформеры / Transformers (2007)
Дата кодирования : UTC 2012-05-01 13:37:06
Программа кодирования : mkvmerge v5.5.0 ('Healer') built on Apr 6 2012 21:43:24
Библиотека кодирования : libebml v1.2.3 + libmatroska v1.3.0

Видео
Идентификатор : 1
Формат : AVC
Формат/Информация : Advanced Video Codec
Профиль формата : High@L4.1
Параметр CABAC формата : Да
Параметр ReFrames формата : 5 кадров
Идентификатор кодека : V_MPEG4/ISO/AVC
Продолжительность : 2 ч. 23 м.
Битрейт : 6470 Кбит/сек
Ширина : 1920 пикселей
Высота : 800 пикселей
Соотношение сторон : 2,40:1
Частота кадров : 23,976 кадра/сек
Цветовое пространство : YUV
Субдискретизация насыщенности : 4:2:0
Битовая глубина : 8 бит
Тип развёртки : Прогрессивная
Бит/(Пиксели*Кадры) : 0.176
Размер потока : 6,33 Гбайт (81%)
Заголовок : Release by AlexKa
Библиотека кодирования : x264 core 124 r2197 69a0443
Настройки программы : cabac=1 / ref=5 / deblock=1:0:0 / analyse=0x3:0x133 / me=umh / subme=11 / psy=1 / psy_rd=1.00:0.10 / mixed_ref=1 / me_range=32 / chroma_me=1 / trellis=2 / 8x8dct=1 / cqm=0 / deadzone=21,11 / fast_pskip=0 / chroma_qp_offset=-3 / threads=12 / sliced_threads=0 / nr=0 / decimate=0 / interlaced=0 / bluray_compat=0 / constrained_intra=0 / bframes=5 / b_pyramid=2 / b_adapt=2 / b_bias=0 / direct=3 / weightb=1 / open_gop=0 / weightp=2 / keyint=240 / keyint_min=23 / scenecut=40 / intra_refresh=0 / rc_lookahead=60 / rc=2pass / mbtree=1 / bitrate=6470 / ratetol=1.0 / qcomp=0.60 / qpmin=0 / qpmax=69 / qpstep=4 / cplxblur=20.0 / qblur=0.5 / ip_ratio=1.40 / aq=1:1.00
Язык : English

Аудио #1
Идентификатор : 2
Формат : AC-3
Формат/Информация : Audio Coding 3
Расширение режима : CM (complete main)
Идентификатор кодека : A_AC3
Продолжительность : 2 ч. 23 м.
Вид битрейта : Постоянный
Битрейт : 640 Кбит/сек
Каналы : 6 каналов
Расположение каналов : Front: L C R, Side: L R, LFE
Частота : 48,0 КГц
Битовая глубина : 16 бит
Метод сжатия : С потерями
Размер потока : 657 Мбайт (8%)
Заголовок : Rus
Язык : Russian

Аудио #2
Идентификатор : 3
Формат : AC-3
Формат/Информация : Audio Coding 3
Расширение режима : CM (complete main)
Идентификатор кодека : A_AC3
Продолжительность : 2 ч. 23 м.
Вид битрейта : Постоянный
Битрейт : 640 Кбит/сек
Каналы : 6 каналов
Расположение каналов : Front: L C R, Side: L R, LFE
Частота : 48,0 КГц
Битовая глубина : 16 бит
Метод сжатия : С потерями
Размер потока : 657 Мбайт (8%)
Заголовок : Eng
Язык : English

Текст #1
Идентификатор : 4
Формат : UTF-8
Идентификатор кодека : S_TEXT/UTF8
Идентификатор кодека/Информация : UTF-8 Plain Text
Заголовок : Rus forced
Язык : Russian

Текст #2
Идентификатор : 5
Формат : UTF-8
Идентификатор кодека : S_TEXT/UTF8
Идентификатор кодека/Информация : UTF-8 Plain Text
Заголовок : Rus
Язык : Russian

Текст #3
Идентификатор : 6
Формат : UTF-8
Идентификатор кодека : S_TEXT/UTF8
Идентификатор кодека/Информация : UTF-8 Plain Text
Заголовок : Eng
Язык : English

Меню
00:00:00.000 : :Chapter 01
00:02:04.707 : :Chapter 02
00:08:54.534 : :Chapter 03
00:15:33.641 : :Chapter 04
00:22:21.381 : :Chapter 05
00:27:42.661 : :Chapter 06
00:33:25.378 : :Chapter 07
00:38:58.002 : :Chapter 08
00:45:13.919 : :Chapter 09
00:51:46.436 : :Chapter 10
00:58:44.687 : :Chapter 11
01:06:48.421 : :Chapter 12
01:11:53.559 : :Chapter 13
01:16:56.445 : :Chapter 14
01:23:37.345 : :Chapter 15
01:29:04.172 : :Chapter 16
01:36:28.741 : :Chapter 17
01:43:58.106 : :Chapter 18
01:49:45.745 : :Chapter 19
01:56:54.007 : :Chapter 20
02:03:09.882 : :Chapter 21
02:10:43.919 : :Chapter 22
02:15:02.302 : :Chapter 23
02:23:27.056 : :Chapter 24
Свернуть


Длительность: 02:23:27
Тех. данные: BDRip 1080р (источник: Blu-ray Disc) | MKV | AVC | AC-3
Видео: 1920x800 (2,40:1), 23.976 fps, 6470 kbps
Аудио #1: AC-3, 6 ch, 640 kbps (Rus)

Аудио #2: AC-3, 6 ch, 640 kbps (Eng)

Скриншоты

Изображение

Изображение

Изображение

Свернуть

Свернуть
Трансформеры: Месть падших / Transformers: Revenge of the Fallen

Изображение
Трансформеры: Месть падших
Transformers: Revenge of the Fallen


«Месть неминуема»


Изображение
 Год выпуска: 2009
 Страна: США
 Жанр: фантастика | боевик | триллер | приключения

Перевод: Профессиональный (полное дублирование) | Субтитры (Русские, английские)

 Режиссер: Майкл Бэй

 Авторы сценария: Эрен Крюгер • Роберто Орси • Алекс Куртцман
 Продюсеры: Дон Мерфи • Йен Брюс • Том ДеСанто
 Оператор: Бен Сересин
 Композитор: Стив Яблонски

 В ролях: Шайа ЛаБаф • Меган Фокс • Джош Дюамель • Тайриз Гибсон • Джон Туртурро • Рамон Родригез • Кевин Данн • Джули Уайт • Изабель Лукас

 Описание: Прошло два года с тех пор, как юный Сэм Уитвикки спас Вселенную, предотвратив глобальную битву между враждующими воинственными расами инопланетных роботов. Несмотря на свои героические подвиги, Сэм остается обычным подростком с обычными проблемами — поступление в колледж и родителями. Разумеется, отъезд будет тяжело воспринят лучшим другом, роботом — телохранителем Бамблби.
 Сэм изо всех сил пытается забыть о конфликте в Мишн Сити и вернуться к нормальной жизни. Однако битва между Автоботами и Десептиконами, несмотря на гриф полной секретности, многое изменила…


Доп. информация

Бюджет: $200 000 000 | Сборы: $836 297 228 | Премьера: 19 июня 2009

Рейтинг PG-13 — Parents strongly cautioned. Дети до 13 лет допускаются на фильм только с родителями
Изображение
 Настоятельное предостережение родителям. Некоторый материал может быть неподходящим для детей до 13 лет. Данный рейтинг показывает, что оценённый фильм может быть неподходящим для детей. Родители должны быть особенно осторожны, разрешая своим маленьким детям просмотр. Грубое или продолжительное насилие отсутствует; сексуальная ориентация на наготу отсутствует; некоторые сцены употребления наркотиков могут присутствовать; можно услышать единичные употребления грубой сексуальной лексики.
Свернуть

Свернуть
Знаете ли вы, что...

  • Для создания первой части «Трансформеров» пришлось задействовать 20 Тб дискового пространства. Для работы над вторым фильмом едва хватило 145 Тб. Для сравнения, 145 Тб – это объем 35000 DVD-дисков. Если сложить столько дисков без коробок друг на друга, то их высота составит 44 метра.
  • В первой части было 14 роботов, на этот раз - 46.
  • Экранное время спецэффектов от студии ILM - 51 минута.
  • Рендеринг фильма на среднестатистическом домашнем компьютере образца 2009 года занял бы 16 тысяч лет.
  • Съёмки начались на следующий день, после того как «Трансформеры» получили награду MTV в номинации «Лучший фильм».
  • Майкл Бэй планировал снять кино с небольшим бюджетом в промежутке между фильмами о трансформерах. Однако, когда график съёмок второй части «Трансформеров» сдвинулся, Бэй отложил свой маленький проект, т.к. не хотел, чтобы сиквел снимал кто-то другой.
  • Джоне Хилл предлагали роль в фильме, однако он отказался, прочитав всего лишь первые двадцать страниц сценария.
  • Изначально Роберто Орси и Алекс Куртцман, написавшие сценарий первого фильма, отклонили предложение написать сценарий сиквела из-за занятости на других проектах. Однако, после того, как студия признала сценарии других авторов неприемлемыми, продюсерам удалось убедить Роберто и Алекса, поработать над вторым фильмом.
  • Автобот Хаунд, трансформирующий в военный джип «Jeep Wrangler», был добавлен в фильм по просьбе Министерства обороны США, после того как они заметили, что в первой картине в основном в военную технику трансформировались десептиконы.
  • Сиквел вполне мог пасть жертвой забастовки сценаристов, однако Роберто Орси, Алекс Куртцман и Эрен Крюгер успели закончить тритмент в ночь перед началом забастовки.
  • В июле 2008 Шайа ЛаБаф попал в аварию. Сценаристам пришлось обыграть в фильме травму его руки.
  • Алекс Куртцман придумал название фильма. Роберто Орси хотел, чтобы фильм назывался «Transformers: More Than Meets the Eye».
  • Мэттью Мэрсден был фанатом комиксов о трансформерах в детстве.
  • Эрен Крюгер присоединился к сценарной команде во многом благодаря своему энциклопедическому знанию вселенной трансформеров.
  • Во время набора актеров и выбора мест съёмок фильм проходил под вымышленным названием «Prime Directive».
  • Изначально автобот Арси должен был присутствовать в первом фильме.
  • Десептикон Саундвэйв должен был присутствовать в первом фильме, однако работы над его внешним видом не были завершены в срок. В сиквеле он будет трансформироваться в спутник.
  • Фильм приурочен к двадцатипятилетию «Трансформеров» (1984).
  • Группа «Mute Math» записала рок-версию музыкальной темы «Трансформеров» (1984), которая должна была быть использована в первом фильме. Создатели так и не нашли для неё места, однако композиция будет использована в сиквеле.
  • Три экшн-сцены были сняты камерами IMAX.
  • По словам Стива Яблонски, в саундтреке сиквела будут присутствовать элементы оригинальной музтемы трансформеров. Стив собирался включить данные элементы в саундтрек первого фильма, однако его идею отклонили.
  • В некоторых массовках участвовали настоящие моряки ВМФ США.
  • Древний город Петра, где Сэм и автоботы находят тайник Праймов, также послужил для съемок кульминационной сцены фильма Стивена Спилберга «Индиана Джонс и последний крестовый поход».
  • В фильме можно заметить постеры двух фильмов - «Монстро» и «Плохие парни 2». Постер первого фильма отсылает к сценаристам Курцману и Орси, которые постоянно сотрудничают с продюсером «Монстро» Дж.Дж Абрамсом. А постер второго фильма отсылает к режиссеру Майклу Бэю, снимавшего «Плохих парней 2».
  • Робот Девастатор ростом с 10-ти этажное здание.
  • Когда Девастатор наносит удар по пирамиде, его рука развивает скорость 626 км/час. Детали этого робота, поставленные одна на другую, образовали бы башню, высота которой была бы в 58 раз выше знаменитого Empire State Building в Нью-Йорке. Общая длина деталей Девастатора около 22 км.
  • Во время пре-продакшна Майкл Бэй заявил, что будет специально инсценировать утечку в сеть различной фальшивой информации, чтобы подстегнуть шумиху вокруг фильма и обсуждение картины на различных киносайтах.
  • По данному фильму была сделана одноименная игра.
  • В фильме задействованы как последнее из сохранившихся «классических» семи чудес света - Пирамида Хеопса в Гизе, так и одно из «новых» 7-ми чудес света - Петра в Иордании.
  • В комнате общежития колледжа висел постер к фильму «Плохие парни 2».
  • Время обработки одного кадра IMAX - 72 часа каждый кадр.

Свернуть
Награды и премии

 Оскар, 2010 год
Номинации (1):
  • Лучший звук

 Премия канала «MTV», 2010 год
Номинации (1):
  • Самый безумный эпизод

 Золотая малина, 2010 год
Победитель (3):
  • Худший фильм
  • Худший режиссер (Майкл Бэй)
  • Худший сценарий
Номинации (3):
  • Худшая женская роль второго плана (Джули Уайт)
  • Худшая экранная пара — «Шайа Лабаф и Меган Фокс или Шайа Лабаф и любой «трансформер»»
  • Худший сиквел, римейк или плагиат

 Жорж, 2010 год
Номинации (1):
  • Лучший зарубежный экшн

Свернуть
MediaInfo
Общее
Уникальный идентификатор : 217069578390942899380606208489510036228 (0xA34E1481AFCF9B63AB0818486F626304)
Полное имя : Transformers.Revenge.of.the.Fallen.2009.BDRip.1080p.Rus.Eng.mkv
Формат : Matroska
Версия формата : Version 2
Размер файла : 7,76 Гбайт
Продолжительность : 2 ч. 29 м.
Общий поток : 7417 Кбит/сек
Название фильма : Трансформеры: Месть падших / Transformers: Revenge of the Fallen (2009)
Дата кодирования : UTC 2012-05-01 13:42:14
Программа кодирования : mkvmerge v5.5.0 ('Healer') built on Apr 6 2012 21:43:24
Библиотека кодирования : libebml v1.2.3 + libmatroska v1.3.0

Видео
Идентификатор : 1
Формат : AVC
Формат/Информация : Advanced Video Codec
Профиль формата : High@L4.1
Параметр CABAC формата : Да
Параметр ReFrames формата : 5 кадров
Идентификатор кодека : V_MPEG4/ISO/AVC
Продолжительность : 2 ч. 29 м.
Битрейт : 6136 Кбит/сек
Ширина : 1920 пикселей
Высота : 800 пикселей
Соотношение сторон : 2,40:1
Частота кадров : 23,976 кадра/сек
Цветовое пространство : YUV
Субдискретизация насыщенности : 4:2:0
Битовая глубина : 8 бит
Тип развёртки : Прогрессивная
Бит/(Пиксели*Кадры) : 0.167
Размер потока : 6,27 Гбайт (81%)
Заголовок : Release by AlexKa
Библиотека кодирования : x264 core 124 r2197 69a0443
Настройки программы : cabac=1 / ref=5 / deblock=1:0:0 / analyse=0x3:0x133 / me=umh / subme=11 / psy=1 / psy_rd=1.00:0.10 / mixed_ref=1 / me_range=32 / chroma_me=1 / trellis=2 / 8x8dct=1 / cqm=0 / deadzone=21,11 / fast_pskip=0 / chroma_qp_offset=-3 / threads=12 / sliced_threads=0 / nr=0 / decimate=0 / interlaced=0 / bluray_compat=0 / constrained_intra=0 / bframes=5 / b_pyramid=2 / b_adapt=2 / b_bias=0 / direct=3 / weightb=1 / open_gop=0 / weightp=2 / keyint=240 / keyint_min=23 / scenecut=40 / intra_refresh=0 / rc_lookahead=60 / rc=2pass / mbtree=1 / bitrate=6136 / ratetol=1.0 / qcomp=0.60 / qpmin=0 / qpmax=69 / qpstep=4 / cplxblur=20.0 / qblur=0.5 / ip_ratio=1.40 / aq=1:1.00
Язык : English

Аудио #1
Идентификатор : 2
Формат : AC-3
Формат/Информация : Audio Coding 3
Расширение режима : CM (complete main)
Идентификатор кодека : A_AC3
Продолжительность : 2 ч. 29 м.
Вид битрейта : Постоянный
Битрейт : 640 Кбит/сек
Каналы : 6 каналов
Расположение каналов : Front: L C R, Side: L R, LFE
Частота : 48,0 КГц
Битовая глубина : 16 бит
Метод сжатия : С потерями
Размер потока : 686 Мбайт (9%)
Заголовок : Rus
Язык : Russian

Аудио #2
Идентификатор : 3
Формат : AC-3
Формат/Информация : Audio Coding 3
Расширение режима : CM (complete main)
Идентификатор кодека : A_AC3
Продолжительность : 2 ч. 29 м.
Вид битрейта : Постоянный
Битрейт : 640 Кбит/сек
Каналы : 6 каналов
Расположение каналов : Front: L C R, Side: L R, LFE
Частота : 48,0 КГц
Битовая глубина : 16 бит
Метод сжатия : С потерями
Размер потока : 686 Мбайт (9%)
Заголовок : Eng
Язык : English

Текст #1
Идентификатор : 4
Формат : UTF-8
Идентификатор кодека : S_TEXT/UTF8
Идентификатор кодека/Информация : UTF-8 Plain Text
Заголовок : Rus forced
Язык : Russian

Текст #2
Идентификатор : 5
Формат : UTF-8
Идентификатор кодека : S_TEXT/UTF8
Идентификатор кодека/Информация : UTF-8 Plain Text
Заголовок : Rus
Язык : Russian

Текст #3
Идентификатор : 6
Формат : UTF-8
Идентификатор кодека : S_TEXT/UTF8
Идентификатор кодека/Информация : UTF-8 Plain Text
Заголовок : Eng
Язык : English

Меню
00:00:00.000 : :Chapter 01
00:08:49.278 : :Chapter 02
00:14:52.641 : :Chapter 03
00:18:18.013 : :Chapter 04
00:25:07.631 : :Chapter 05
00:33:00.520 : :Chapter 06
00:37:07.767 : :Chapter 07
00:43:33.652 : :Chapter 08
00:54:56.543 : :Chapter 09
01:03:23.883 : :Chapter 10
01:12:26.008 : :Chapter 11
01:20:12.182 : :Chapter 12
01:26:35.064 : :Chapter 13
01:35:41.152 : :Chapter 14
01:44:54.079 : :Chapter 15
01:50:34.711 : :Chapter 16
01:59:01.801 : :Chapter 17
02:07:13.709 : :Chapter 18
02:15:05.305 : :Chapter 19
02:22:14.817 : :Chapter 20
02:29:52.775 : :Chapter 21
Свернуть


Длительность: 02:29:53
Тех. данные: BDRip 1080р (источник: Blu-ray Disc) | MKV | AVC | AC-3
Видео: 1920x800 (2,40:1), 23.976 fps, 6136 kbps
Аудио #1: AC-3, 6 ch, 640 kbps (Rus)

Аудио #2: AC-3, 6 ch, 640 kbps (Eng)


Скриншоты

Изображение

Изображение

Изображение

Свернуть

Свернуть
Трансформеры 3: Тёмная сторона Луны / Transformers: Dark of the Moon

Изображение
Трансформеры 3: Тёмная сторона Луны
Transformers: Dark of the Moon


«Последний шанс цивилизации»


Изображение
 Год выпуска: 2011
 Страна: США
 Жанр: фантастика | боевик | приключения

Перевод: Профессиональный (полное дублирование) | Субтитры (Русские, английские)

 Режиссер: Майкл Бэй

 Автор сценария: Эрен Крюгер
 Продюсеры: Дон Мерфи • Йен Брюс • Том ДеСанто
 Оператор: Амир М. Мокри
 Композитор: Стив Яблонски

 В ролях: Шайа ЛаБаф • Джош Дюамель • Джон Туртурро • Тайриз Гибсон • Роузи Хантингтон-Уайтли • Патрик Демпси • Кевин Данн • Джули Уайт • Джон Малкович

 Описание: Для наших героев наступили печальные будни: Сэм потерял Микаэлу, правительство выпускает законодательный акт о выселении Автоботов с Земли, а пока Мегатрон скрывается после позорного поражения Фоллена, десептикон Шокуэйв, правитель Кибертрона, готовится нанести визит нашей планете с совсем недобрыми намерениями. Действие заключительной части трилогии на этот раз охватит не только Землю, но и Луну, темная сторона которой хранит не менее темные тайны.

Доп. информация

Бюджет: $195 000 000 | Сборы: $1 119 209 279 | Премьера: 25 июня 2011

Рейтинг PG-13 — Parents strongly cautioned. Дети до 13 лет допускаются на фильм только с родителями
Изображение
 Настоятельное предостережение родителям. Некоторый материал может быть неподходящим для детей до 13 лет. Данный рейтинг показывает, что оценённый фильм может быть неподходящим для детей. Родители должны быть особенно осторожны, разрешая своим маленьким детям просмотр. Грубое или продолжительное насилие отсутствует; сексуальная ориентация на наготу отсутствует; некоторые сцены употребления наркотиков могут присутствовать; можно услышать единичные употребления грубой сексуальной лексики.
Свернуть

Свернуть
Знаете ли вы, что...

  • Мировая премьера фильма состоялась в Москве в рамках Московского международного кинофестиваля 23 июня 2011 года.
  • Из-за конфликта с режиссером фильма Меган Фокс была вынуждена покинуть проект.
  • 1 миллион американских долларов был потрачен в течение двух съемочных дней в Художественном музее Милуоки.
  • Майкл Бэй - единственный режиссер, которому было разрешено дважды снять запуск космического шатла («Армагеддон» и «Трансформеры 3»).
  • Трансформеры созданы компанией по производству игрушек Hasbro в 1984 году, позже ставших медиаимперией из мультсериалов и комиксов. Сегодня права на комиксы Трансформеров принадлежат издательству IDW и они дополняют как кинофраншизу, так и оригинальную вселенную Трансформеров.
  • Сентинел Прайм (озвучивал в оригинале Леонард Нимой) перед финальной битвой с Оптимусом говорит: «Потребности большинства перекрывают потребности меньшинства». Примечательно, что это фраза является фразой Спока («Звёздный путь»), роль которого исполнял Леонард Нимой.
  • Главными претендентками на роль Карли были Бруклин Декер и Сара Райт. Также её могли сыграть Джемма Артертон, Эшли Грин, Миранда Керр, Бар Рафаэли, Эмбер Херд, Камилла Белль, Кэти Кэссиди, Хайди Монтаг и Анна Кендрик.
  • Майклу Бэю достается 8% от продаж всей мерчандайзинговой продукции - игрушек, сувениров, комиксов - связанной с фильмом. К оригинальным игрушкам Трансформеров, не брендированных в стиле кинофраншизы, это не относится.
  • Во время съемок автомобильной сцены в штате Индиана лопнул буксировочный трос. Оторвавшись, он тяжело ранил водительницу. Габриэла Седийо осталась в живых, но лишилась глаза, получила серьезное повреждение головного мозга и оказалась наполовину парализована.

Свернуть
MediaInfo
Общее
Уникальный идентификатор : 189521251182368368696007721896167058409 (0x8E94771C42EFB00D9973AFA04BE7ABE9)
Полное имя : Transformers.Dark.of.the.Moon.2011.BDRip.1080p.Rus.Eng.mkv
Формат : Matroska
Версия формата : Version 2
Размер файла : 7,76 Гбайт
Продолжительность : 2 ч. 34 м.
Общий поток : 7200 Кбит/сек
Название фильма : Трансформеры 3: Тёмная сторона Луны / Transformers: Dark of the Moon (2011)
Дата кодирования : UTC 2012-05-01 13:47:12
Программа кодирования : mkvmerge v5.5.0 ('Healer') built on Apr 6 2012 21:43:24
Библиотека кодирования : libebml v1.2.3 + libmatroska v1.3.0

Видео
Идентификатор : 1
Формат : AVC
Формат/Информация : Advanced Video Codec
Профиль формата : High@L4.1
Параметр CABAC формата : Да
Параметр ReFrames формата : 5 кадров
Идентификатор кодека : V_MPEG4/ISO/AVC
Продолжительность : 2 ч. 34 м.
Битрейт : 5920 Кбит/сек
Ширина : 1920 пикселей
Высота : 800 пикселей
Соотношение сторон : 2,40:1
Частота кадров : 23,976 кадра/сек
Цветовое пространство : YUV
Субдискретизация насыщенности : 4:2:0
Битовая глубина : 8 бит
Тип развёртки : Прогрессивная
Бит/(Пиксели*Кадры) : 0.161
Размер потока : 6,23 Гбайт (80%)
Заголовок : Release by AlexKa
Библиотека кодирования : x264 core 124 r2197 69a0443
Настройки программы : cabac=1 / ref=5 / deblock=1:0:0 / analyse=0x3:0x133 / me=umh / subme=11 / psy=1 / psy_rd=1.00:0.10 / mixed_ref=1 / me_range=32 / chroma_me=1 / trellis=2 / 8x8dct=1 / cqm=0 / deadzone=21,11 / fast_pskip=0 / chroma_qp_offset=-3 / threads=12 / sliced_threads=0 / nr=0 / decimate=0 / interlaced=0 / bluray_compat=0 / constrained_intra=0 / bframes=5 / b_pyramid=2 / b_adapt=2 / b_bias=0 / direct=3 / weightb=1 / open_gop=0 / weightp=2 / keyint=240 / keyint_min=23 / scenecut=40 / intra_refresh=0 / rc_lookahead=60 / rc=2pass / mbtree=1 / bitrate=5920 / ratetol=1.0 / qcomp=0.60 / qpmin=0 / qpmax=69 / qpstep=4 / cplxblur=20.0 / qblur=0.5 / ip_ratio=1.40 / aq=1:1.00
Язык : English

Аудио #1
Идентификатор : 2
Формат : AC-3
Формат/Информация : Audio Coding 3
Расширение режима : CM (complete main)
Идентификатор кодека : A_AC3
Продолжительность : 2 ч. 34 м.
Вид битрейта : Постоянный
Битрейт : 640 Кбит/сек
Каналы : 6 каналов
Расположение каналов : Front: L C R, Side: L R, LFE
Частота : 48,0 КГц
Битовая глубина : 16 бит
Метод сжатия : С потерями
Размер потока : 707 Мбайт (9%)
Заголовок : Rus
Язык : Russian

Аудио #2
Идентификатор : 3
Формат : AC-3
Формат/Информация : Audio Coding 3
Расширение режима : CM (complete main)
Идентификатор кодека : A_AC3
Продолжительность : 2 ч. 34 м.
Вид битрейта : Постоянный
Битрейт : 640 Кбит/сек
Каналы : 6 каналов
Расположение каналов : Front: L C R, Side: L R, LFE
Частота : 48,0 КГц
Битовая глубина : 16 бит
Метод сжатия : С потерями
Размер потока : 707 Мбайт (9%)
Заголовок : Eng
Язык : English

Текст #1
Идентификатор : 4
Формат : UTF-8
Идентификатор кодека : S_TEXT/UTF8
Идентификатор кодека/Информация : UTF-8 Plain Text
Заголовок : Rus forced
Язык : Russian

Текст #2
Идентификатор : 5
Формат : UTF-8
Идентификатор кодека : S_TEXT/UTF8
Идентификатор кодека/Информация : UTF-8 Plain Text
Заголовок : Rus
Язык : Russian

Текст #3
Идентификатор : 6
Формат : UTF-8
Идентификатор кодека : S_TEXT/UTF8
Идентификатор кодека/Информация : UTF-8 Plain Text
Заголовок : Eng
Язык : English

Меню
00:00:00.000 : :Chapter 01
00:08:52.573 : :Chapter 02
00:14:26.615 : :Chapter 03
00:20:20.928 : :Chapter 04
00:28:48.143 : :Chapter 05
00:36:18.634 : :Chapter 06
00:45:18.549 : :Chapter 07
00:51:53.026 : :Chapter 08
00:56:34.224 : :Chapter 09
01:04:13.307 : :Chapter 10
01:12:56.705 : :Chapter 11
01:19:09.077 : :Chapter 12
01:23:41.391 : :Chapter 13
01:28:44.819 : :Chapter 14
01:35:13.082 : :Chapter 15
01:42:44.158 : :Chapter 16
01:49:12.337 : :Chapter 17
01:56:42.912 : :Chapter 18
02:04:59.116 : :Chapter 19
02:11:29.590 : :Chapter 20
02:19:10.884 : :Chapter 21
02:25:37.520 : :Chapter 22
02:34:23.045 : :Chapter 23
Свернуть


Длительность: 02:34:23
Тех. данные: BDRip 1080р (источник: Blu-ray Disc) | MKV | AVC | AC-3
Видео: 1920x800 (2,40:1), 23.976 fps, 5920 kbps
Аудио #1: AC-3, 6 ch, 640 kbps (Rus)
Аудио #2: AC-3, 6 ch, 640 kbps (Eng)


Скриншоты

Изображение

Изображение

Изображение

Свернуть

Свернуть


За оформление БОЛЬШОЕ СПАСИБО "Совунья"

_________________
Изображение Изображение Изображение
Не в сети
Профиль  
 Добавлено: 2012-05-03 21:22 (спустя 5 минут)
Аватара пользователя
Стаж: 5 лет 11 месяцев
Возраст: 23
Сообщений: 185
Спасибок: 373
Золото... Однозначно
_________________
speed
Изображение
Свернуть
Не в сети
Профиль  
 Добавлено: 2012-05-03 22:29 (спустя 1 час 7 минут)
Аватара пользователя
Стаж: 6 лет 2 месяца
Возраст: 33
Сообщений: 32
Лайков: 1
Огромное спасибо за сборничек!!!!!! Давно искал !!! :ya_hoo_oo:
Не в сети
Профиль  
 Добавлено: 2012-05-04 18:09 (спустя 19 часов)
Стаж: 4 года 7 месяцев
Сообщений: 58
Спасибок: 32
Лайков: 4
скорости бы...а то так до конца света качаться будет. дружище, раздай хоть кому-нть?
Не в сети
Профиль  
 Добавлено: 2012-05-05 20:06 (спустя 1 день 1 час)
Модератор
Аватара пользователя
Стаж: 5 лет 8 месяцев
Сообщений: 6281
Спасибок: 17342
Лайков: 1633
DoLphin2405
Пожалуйста :)

Добавлено спустя 46 секунд:
Desperanto86
раздаю 3-5 МБ/с
_________________
Изображение Изображение Изображение
Не в сети
Профиль  
 Добавлено: 2012-09-29 23:28 (спустя 4 месяца 24 дня)
Стаж: 4 года 5 месяцев
Сообщений: 4
Спасибо :)
Не в сети
Профиль  
 Добавлено: 2012-10-03 12:43 (спустя 3 дня)
Стаж: 8 лет
Сообщений: 1
Спасибок: 2
ЧТО ЗА шит? почему видео тормозит?
Не в сети
Профиль  
 Добавлено: 2012-12-16 15:20 (спустя 2 месяца 13 дней)
Модератор
Аватара пользователя
Стаж: 5 лет 8 месяцев
Сообщений: 6281
Спасибок: 17342
Лайков: 1633
grom252
Пожалуйста :)
albert1986
Всё нормально с видео, ищите ошибку у себя.
_________________
Изображение Изображение Изображение


Последний раз редактировалось bazanoff 2013-01-19 21:05, всего редактировалось 1 раз.
Не в сети
Профиль  
 Добавлено: 2012-12-26 08:26 (спустя 9 дней)
Аватара пользователя
Стаж: 7 лет 1 месяц
Возраст: 25
Сообщений: 26
скорости плиз!
Не в сети
Профиль  
 Добавлено: 2012-12-28 01:35 (спустя 1 день 17 часов)
Аватара пользователя
Стаж: 6 лет 8 месяцев
Возраст: 41
Сообщений: 28
Лайков: 3
На DTS ума не хватило
Не в сети
Профиль  
 Добавлено: 2012-12-29 20:04 (спустя 1 день 18 часов)
Аватара пользователя
Стаж: 4 года 4 месяца
Возраст: 33
Сообщений: 178
Лайков: 3
:co_ol: :co_ol: :co_ol: :co_ol:
Не в сети
Профиль  
 Добавлено: 2013-01-12 13:27 (спустя 13 дней)
Модератор
Аватара пользователя
Стаж: 5 лет 8 месяцев
Сообщений: 6281
Спасибок: 17342
Лайков: 1633
mixghjjghjj
:)
_________________
Изображение Изображение Изображение
Не в сети
Профиль  
 Добавлено: 2013-01-12 13:27 (спустя 1 секунда)
Модератор
Аватара пользователя
Стаж: 5 лет 8 месяцев
Сообщений: 6281
Спасибок: 17342
Лайков: 1633
mixghjjghjj
:)
_________________
Изображение Изображение Изображение
Не в сети
Профиль  
 Добавлено: 2013-07-19 14:11 (спустя 6 месяцев)
Аватара пользователя
Стаж: 7 лет 8 месяцев
Сообщений: 63
Спасибок: 183
Лайков: 5
спасибо! :bra_vo:
Не в сети
Профиль  
 Добавлено: 2013-10-22 14:00 (спустя 3 месяца 2 дня)
Стаж: 4 года
Сообщений: 1
дайте скорости!
Не в сети
Профиль  
 Добавлено: 2013-11-05 11:02 (спустя 13 дней)
Модератор
Аватара пользователя
Стаж: 5 лет 8 месяцев
Сообщений: 6281
Спасибок: 17342
Лайков: 1633
Shulzzz
Пожалуйста! :)
_________________
Изображение Изображение Изображение
Не в сети
Профиль  
Начать новую темуОтветить на тему  [ Сообщений: 16 ] 
Вы не можете начинать темы
Вы не можете отвечать на сообщения
Вы не можете редактировать свои сообщения
Вы не можете удалять свои сообщения