Правила форума

  • В этом разделе создание новых тем Запрещено.
  • Для создания новых тем пользуйтесь Корневым разделом DVD и HD фильмы.
Начать новую темуОтветить на тему  [ Сообщений: 4 ] 
Торрент файл
Размер: 4.63 GB • Зарегистрирован: 4 года 10 месяцев • Статус: Проверено
Скачан: 77 раз • Желающих скачать: 0 • Поблагодарили: 19 раз
 Раздают: 0  |  0 KB/s  ]   Качают: 0  |  0 KB/s  ] 
 Полного источника не было 3 года 2 месяца 
Сообщения
 Добавлено: 2012-01-11 15:31
DVD Release Group
Аватара пользователя
Стаж: 7 лет 1 месяц
Сообщений: 3544
Спасибок: 246938
Лайков: 1018
Транзит

Transit


Изображение


Год выпуска: 2012
Страна: США / After Dark Films, Gaeta / Rosenzweig Films
Жанр: Триллер, драма, криминал
Продолжительность: 01:28:18
Перевод: Профессиональный (двухголосый)
Субтитры: Нет
Режиссер: Антонио Негрет
В ролях: Джеймс Кэвизел, Диора Бэрд, Элизабет Рём, Джеймс Фрейн, Стерлинг Найт, Хэролд Перрино, Джэйк Черри, Райан Доноху, Бо Брассо, Робби Джонс
Описание: Чтобы перевезти украденные четыре миллиона долларов через дорожный контрольно-пропускной пункт, виновники кровавого ограбления банка используют простую семью, как невольных курьеров. Теперь преступники хотят получить свои деньги назад и не остановятся ни перед чем, чтобы вернуть их.
Кинопоиск: 5.46 (243)
Sample:
http://multi-up.com/626935
Качество: BDRip
Формат: MKV
Видео кодек: H.264
Аудио кодек: AC3, DTS
Видео: 1280x544 23,98fps 5566kbps 0.333bit/pixel
Аудио:
Аудио Rus: AC3 48kHz 6ch 448Kbps
Аудио Eng: DTS 48kHz 6ch 1510Kbps
"MediaInfo"

Формат : Matroska
Версия формата : Version 2
Размер файла : 4,63 Гбайт
Продолжительность : 1 ч. 28 м.
Общий поток : 7509 Кбит/сек
Дата кодирования : UTC 2012-01-11 10:53:44
Программа кодирования : mkvmerge v4.4.0 ('Die Wiederkehr') сборка от Oct 31 2010 21:52:48
Библиотека кодирования : libebml v1.0.0 + libmatroska v1.0.0

Видео
Идентификатор : 1
Формат : AVC
Формат/Информация : Advanced Video Codec
Профиль формата : High@L4.1
Параметр CABAC формата : Да
Параметр ReFrames формата : 5 кадров
Режим смешивания : Header stripping
Идентификатор кодека : V_MPEG4/ISO/AVC
Продолжительность : 1 ч. 28 м.
Битрейт : 5566 Кбит/сек
Ширина : 1280 пикселей
Высота : 544 пикселя
Соотношение сторон : 2,35:1
Частота кадров : 23,976 кадра/сек
Цветовое пространство : YUV
Субдискретизация насыщенности : 4:2:0
Битовая глубина : 8 бит
Тип развёртки : Прогрессивная
Бит/(Пиксели*Кадры) : 0.333
Размер потока : 3,33 Гбайт (72%)
Библиотека кодирования : x264 core 119 r2106 07efeb4
Настройки программы : cabac=1 / ref=5 / deblock=1:0:0 / analyse=0x3:0x113 / me=umh / subme=7 / psy=1 / psy_rd=1.00:0.15 / mixed_ref=1 / me_range=16 / chroma_me=1 / trellis=1 / 8x8dct=1 / cqm=0 / deadzone=21,11 / fast_pskip=0 / chroma_qp_offset=-3 / threads=12 / sliced_threads=0 / nr=0 / decimate=1 / interlaced=0 / bluray_compat=0 / constrained_intra=0 / bframes=3 / b_pyramid=2 / b_adapt=1 / b_bias=0 / direct=1 / weightb=1 / open_gop=0 / weightp=2 / keyint=250 / keyint_min=23 / scenecut=40 / intra_refresh=0 / rc_lookahead=40 / rc=2pass / mbtree=1 / bitrate=5566 / ratetol=1.0 / qcomp=0.60 / qpmin=0 / qpmax=69 / qpstep=4 / cplxblur=20.0 / qblur=0.5 / ip_ratio=1.40 / aq=1:1.00
Язык : English

Аудио #1
Идентификатор : 2
Формат : AC-3
Формат/Информация : Audio Coding 3
Расширение режима : CM (complete main)
Режим смешивания : Header stripping
Идентификатор кодека : A_AC3
Продолжительность : 1 ч. 28 м.
Вид битрейта : Постоянный
Битрейт : 448 Кбит/сек
Каналы : 6 каналов
Расположение каналов : Front: L C R, Side: L R, LFE
Частота : 48,0 КГц
Битовая глубина : 16 бит
Метод сжатия : С потерями
Размер потока : 283 Мбайт (6%)
Язык : Russian

Аудио #2
Идентификатор : 3
Формат : DTS
Формат/Информация : Digital Theater Systems
Режим смешивания : Header stripping
Идентификатор кодека : A_DTS
Продолжительность : 1 ч. 28 м.
Вид битрейта : Постоянный
Битрейт : 1510 Кбит/сек
Каналы : 6 каналов
Расположение каналов : Front: L C R, Side: L R, LFE
Частота : 48,0 КГц
Битовая глубина : 24 бит
Метод сжатия : С потерями
Задержка видео : 11 мс.
Размер потока : 954 Мбайт (20%)
Язык : English
Свернуть
"Скриншоты"

Изображение
Изображение
Изображение
Изображение
Свернуть
Раздача группы:
Изображение


Последний раз редактировалось rastor 2012-01-16 15:06, всего редактировалось 1 раз.
Не в сети
Профиль  
 Добавлено: 2012-01-15 20:59 (спустя 4 дня)
Стаж: 5 лет 3 месяца
Сообщений: 150
Лайков: 1
Для такого параши это ещё долго 01:28:18.
Не в сети
Профиль  
 Добавлено: 2012-01-16 15:01 (спустя 18 часов)
Стаж: 9 лет
Сообщений: 6
Откуда такой рейтинг? На кинопоиске 5.461
Не в сети
Профиль  
 Добавлено: 2012-01-16 15:05 (спустя 4 минуты)
DVD Release Group
Аватара пользователя
Стаж: 7 лет 1 месяц
Сообщений: 3544
Спасибок: 246938
Лайков: 1018
Brainnnnnn
Этот рейтинг был 5 дней назад.
Не в сети
Профиль  
Начать новую темуОтветить на тему  [ Сообщений: 4 ] 
Вы не можете начинать темы
Вы не можете отвечать на сообщения
Вы не можете редактировать свои сообщения
Вы не можете удалять свои сообщения