Правила форума

  • В этом разделе создание новых тем Запрещено.
  • Для создания новых тем пользуйтесь Корневым разделом DVD и HD фильмы.
Начать новую темуОтветить на тему  [ 1 сообщение ] 
Торрент файл
Размер: 7.76 GB • Зарегистрирован: 1 год 5 месяцев • Статус: Проверено
Скачан: 211 раз • Желающих скачать: 0 • Поблагодарили: 43 раза
 Раздают: 2  |  0 KB/s  ]   Качают: 0  |  0 KB/s  ] 
Сообщения
 Добавлено: 2015-06-14 21:07
Модератор
Аватара пользователя
Стаж: 7 лет 9 месяцев
Сообщений: 4521
Спасибок: 112855
Лайков: 583
Тренер

McFarland, USA


Изображение


Год выпуска: 2015
Страна: США
Жанр: Драма, спорт
Продолжительность: 02:08:56
Перевод: Профессиональный (многоголосый)
Режиссер: Ники Каро
В ролях: Кевин Костнер, Рамиро Родригес, Карлос Праттс, Джонни Ортиз, Рафаэль Мартинез, Гектор Дюран, Серджо Авелар, Майкл Агеро, Диана-Мария Рива, Омар Лейва
Описание: История, основана на реальных событиях. В начале девяностых, в маленьком городке МакФарланд, профессиональный тренер создает команду по легкой атлетике из обычных сорванцов и мелких «хулиганов», и приводит эту команду до вершины спортивного Олимпа. Население МакФарланда — это 90 процентов латиноамериканцы, которые приехали в США под видом переселенцев и беженцев…
Изображение Изображение
Sample:
http://sendfile.su/1128170
Качество: BDRip (1080p)
Формат: MKV
Видео: MPEG-4 AVC, 7720 Кбит/с, 1920x806
Аудио: Русский, английский (AC3, 6 ch, 448 Кбит/с)
BD Info
Общее
Уникальный идентификатор                 : 231359718999347916087627817138939239493 (0xAE0E42D5C8B8F6DB8A0100A718DC1C45)
Полное имя                               : C:\McFarland.USA.2015.BDRip.1080p.HDR.mkv
Формат                                   : Matroska
Версия формата                           : Version 2
Размер файла                             : 7,76 Гбайт
Продолжительность                        : 2 ч. 9 м.
Общий поток                              : 8609 Кбит/сек
Название фильма                          : ~Vad~
Дата кодирования                         : UTC 2015-06-14 14:38:21
Программа кодирования                    : mkvmerge v7.9.0 ('Birds') 64bit
Библиотека кодирования                   : libebml v1.3.1 + libmatroska v1.4.2
Attachements                             : cover.jpg
 
Видео
Идентификатор                            : 1
Формат                                   : AVC
Формат/Информация                        : Advanced Video Codec
Профиль формата                          : High@L4.1
Параметр CABAC формата                   : Да
Параметр ReFrames формата                : 5 кадров
Идентификатор кодека                     : V_MPEG4/ISO/AVC
Продолжительность                        : 2 ч. 9 м.
Битрейт                                  : 7720 Кбит/сек
Ширина                                   : 1920 пикселей
Высота                                   : 806 пикселей
Соотношение сторон                       : 2,40:1
Режим частоты кадров                     : Постоянный
Частота кадров                           : 23,976 кадра/сек
Цветовое пространство                    : YUV
Субдискретизация насыщенности            : 4:2:0
Битовая глубина                          : 8 бит
Тип развёртки                            : Прогрессивная
Бит/(Пиксели*Кадры)                      : 0.208
Размер потока                            : 6,80 Гбайт (88%)
Заголовок                                : ~V~
Библиотека кодирования                   : x264 core 142 r0+4281 a3bf0d5 Test [8-bit@all X86_64]
Настройки программы                      : cabac=1 / ref=5 / deblock=1:-3:-3 / analyse=0x3:0x133 / me=umh / subme=11 / psy=1 / fade_compensate=0.00 / psy_rd=1.00:0.00 / mixed_ref=1 / me_range=48 / chroma_me=1 / trellis=2 / 8x8dct=1 / cqm=0 / deadzone=21,11 / fast_pskip=0 / chroma_qp_offset=-2 / threads=12 / lookahead_threads=1 / sliced_threads=0 / nr=0 / decimate=0 / interlaced=0 / bluray_compat=0 / constrained_intra=0 / fgo=0 / bframes=10 / b_pyramid=2 / b_adapt=2 / b_bias=0 / direct=3 / weightb=1 / open_gop=0 / weightp=2 / keyint=240 / keyint_min=23 / scenecut=40 / intra_refresh=0 / rc=2pass / mbtree=0 / bitrate=7720 / ratetol=1.0 / qcomp=0.60 / qpmin=0:0:0 / qpmax=69:69:69 / qpstep=4 / cplxblur=20.0 / qblur=0.5 / ip_ratio=1.40 / pb_ratio=1.30 / aq=4:0.95 / aq-sensitivity=11.00 / aq-factor=1.00:1.00:1.00 / aq2=1:0.70 / aq2-sensitivity=10.00 / aq2-factor=1.00:1.00:1.00 / aq3=1:[0.60:0.60]:[0.60:0.60]:[0.60:0.60]:[0.60:0.60] / aq3-sensitivity=9.00 / aq3-factor=[1.00:1.00]:[1.00:1.00]:[1.00:1.00] / aq3-boundary=192:64:24
Язык                                     : English
Default                                  : Да
Forced                                   : Нет
 
Аудио #1
Идентификатор                            : 2
Формат                                   : AC-3
Формат/Информация                        : Audio Coding 3
Расширение режима                        : CM (complete main)
Параметр Endianness формата              : Big
Идентификатор кодека                     : A_AC3
Продолжительность                        : 2 ч. 9 м.
Вид битрейта                             : Постоянный
Битрейт                                  : 448 Кбит/сек
Каналы                                   : 6 каналов
Расположение каналов                     : Front: L C R, Side: L R, LFE
Частота                                  : 48,0 КГц
Метод сжатия                             : С потерями
Размер потока                            : 414 Мбайт (5%)
Язык                                     : Russian
Default                                  : Да
Forced                                   : Нет
 
Аудио #2
Идентификатор                            : 3
Формат                                   : AC-3
Формат/Информация                        : Audio Coding 3
Расширение режима                        : CM (complete main)
Параметр Endianness формата              : Big
Идентификатор кодека                     : A_AC3
Продолжительность                        : 2 ч. 9 м.
Вид битрейта                             : Постоянный
Битрейт                                  : 448 Кбит/сек
Каналы                                   : 6 каналов
Расположение каналов                     : Front: L C R, Side: L R, LFE
Частота                                  : 48,0 КГц
Метод сжатия                             : С потерями
Размер потока                            : 414 Мбайт (5%)
Язык                                     : English
Default                                  : Нет
Forced                                   : Нет
 
Текст #1
Идентификатор                            : 4
Формат                                   : UTF-8
Идентификатор кодека                     : S_TEXT/UTF8
Идентификатор кодека/Информация          : UTF-8 Plain Text
Заголовок                                : Forced - color
Язык                                     : Russian
Default                                  : Да
Forced                                   : Да
 
Текст #2
Идентификатор                            : 5
Формат                                   : UTF-8
Идентификатор кодека                     : S_TEXT/UTF8
Идентификатор кодека/Информация          : UTF-8 Plain Text
Заголовок                                : Forced
Язык                                     : Russian
Default                                  : Нет
Forced                                   : Нет
 
Меню
00:00:00.000                             : en:Chapter 01
00:05:48.348                             : en:Chapter 02
00:08:58.538                             : en:Chapter 03
00:13:24.845                             : en:Chapter 04
00:15:26.675                             : en:Chapter 05
00:19:21.368                             : en:Chapter 06
00:22:19.296                             : en:Chapter 07
00:25:50.757                             : en:Chapter 08
00:34:41.454                             : en:Chapter 09
00:41:11.177                             : en:Chapter 10
00:43:13.841                             : en:Chapter 11
00:48:04.923                             : en:Chapter 12
00:55:29.951                             : en:Chapter 13
00:57:24.315                             : en:Chapter 14
01:01:23.096                             : en:Chapter 15
01:06:03.459                             : en:Chapter 16
01:10:50.996                             : en:Chapter 17
01:14:02.855                             : en:Chapter 18
01:18:48.557                             : en:Chapter 19
01:28:10.535                             : en:Chapter 20
01:37:34.849                             : en:Chapter 21
01:40:24.643                             : en:Chapter 22
01:45:38.081                             : en:Chapter 23
01:53:12.744                             : en:Chapter 24
02:02:03.774                             : en:Chapter 25
02:04:34.508                             : en:Chapter 26
Свернуть
"Скриншоты"
Изображение
Изображение
Изображение
Свернуть
_________________
Изображение
Не в сети
Профиль  
Начать новую темуОтветить на тему  [ 1 сообщение ] 
Вы не можете начинать темы
Вы не можете отвечать на сообщения
Вы не можете редактировать свои сообщения
Вы не можете удалять свои сообщения