Правила форума

  • В этом разделе создание новых тем Запрещено.
  • Для создания новых тем пользуйтесь Корневым разделом DVD и HD фильмы.
Начать новую темуОтветить на тему  [ 1 сообщение ] 
Торрент файл
Размер: 30.41 GB • Зарегистрирован: 1 год 5 месяцев • Статус: Проверено
Скачан: 26 раз • Желающих скачать: 0 • Поблагодарили: 9 раз
 Раздают: 0  |  0 KB/s  ]   Качают: 0  |  0 KB/s  ] 
 Полного источника не было 3 часа 
Сообщения
 Добавлено: 2015-06-14 21:18
Модератор
Аватара пользователя
Стаж: 7 лет 9 месяцев
Сообщений: 4521
Спасибок: 112844
Лайков: 583
Тренер

McFarland, USA


Изображение


Год выпуска: 2015
Страна: США
Жанр: Драма, спорт
Продолжительность: 02:08:56
Перевод: Профессиональный (многоголосый)
Режиссер: Ники Каро
В ролях: Кевин Костнер, Рамиро Родригес, Карлос Праттс, Джонни Ортиз, Рафаэль Мартинез, Гектор Дюран, Серджо Авелар, Майкл Агеро, Диана-Мария Рива, Омар Лейва
Описание: История, основана на реальных событиях. В начале девяностых, в маленьком городке МакФарланд, профессиональный тренер создает команду по легкой атлетике из обычных сорванцов и мелких «хулиганов», и приводит эту команду до вершины спортивного Олимпа. Население МакФарланда — это 90 процентов латиноамериканцы, которые приехали в США под видом переселенцев и беженцев…
Изображение Изображение
Sample:
http://sendfile.su/1128180
Качество: Blu-Ray Remux (1080p)
Формат: MKV
Видео: MPEG-4 AVC, 29987 Кбит/с, 1920x1080, 23.976 кадр/с
Аудио: Русский (AC3, 6 ch, 448 Кбит/с), английский (DTS-HD MA, 6 ch, 3388 Кбит/с), (AC3, 2 ch, 320 Кбит/с)
BD Info
Общее
Уникальный идентификатор                 : 226378077905843044026871758169599190003 (0xAA4ED4F7580C4504851619DB93A923F3)
Полное имя                               : C:\McFarland.USA.2015.BluRay.Remux.mkv
Формат                                   : Matroska
Версия формата                           : Version 2
Размер файла                             : 30,4 Гбайт
Продолжительность                        : 2 ч. 8 м.
Режим общего битрейта                    : Переменный
Общий поток                              : 33,8 Мбит/сек
Дата кодирования                         : UTC 2015-06-14 14:49:40
Программа кодирования                    : mkvmerge v7.9.0 ('Birds') 64bit
Библиотека кодирования                   : libebml v1.3.1 + libmatroska v1.4.2
 
Видео
Идентификатор                            : 1
Формат                                   : AVC
Формат/Информация                        : Advanced Video Codec
Профиль формата                          : High@L4.1
Параметр CABAC формата                   : Да
Параметр ReFrames формата                : 4 кадра
Идентификатор кодека                     : V_MPEG4/ISO/AVC
Продолжительность                        : 2 ч. 8 м.
Вид битрейта                             : Переменный
Максимальный битрейт                     : 32,0 Мбит/сек
Ширина                                   : 1920 пикселей
Высота                                   : 1080 пикселей
Соотношение сторон                       : 16:9
Режим частоты кадров                     : Постоянный
Частота кадров                           : 23,976 кадра/сек
Цветовое пространство                    : YUV
Субдискретизация насыщенности            : 4:2:0
Битовая глубина                          : 8 бит
Тип развёртки                            : Прогрессивная
Default                                  : Да
Forced                                   : Нет
 
Аудио #1
Идентификатор                            : 2
Формат                                   : AC-3
Формат/Информация                        : Audio Coding 3
Расширение режима                        : CM (complete main)
Параметр Endianness формата              : Big
Идентификатор кодека                     : A_AC3
Продолжительность                        : 2 ч. 8 м.
Вид битрейта                             : Постоянный
Битрейт                                  : 448 Кбит/сек
Каналы                                   : 6 каналов
Расположение каналов                     : Front: L C R, Side: L R, LFE
Частота                                  : 48,0 КГц
Метод сжатия                             : С потерями
Размер потока                            : 413 Мбайт (1%)
Язык                                     : Russian
Default                                  : Да
Forced                                   : Нет
 
Аудио #2
Идентификатор                            : 3
Формат                                   : DTS
Формат/Информация                        : Digital Theater Systems
Профиль формата                          : MA / Core
Режим                                    : 16
Параметр Endianness формата              : Big
Идентификатор кодека                     : A_DTS
Продолжительность                        : 2 ч. 8 м.
Вид битрейта                             : Переменный
Битрейт                                  : Неизвестно / 1509 Кбит/сек
Каналы                                   : 6 каналов
Расположение каналов                     : Front: L C R, Side: L R, LFE
Частота                                  : 48,0 КГц
Битовая глубина                          : 24 бит
Метод сжатия                             : Без потерь / Lossy
Язык                                     : English
Default                                  : Нет
Forced                                   : Нет
 
Аудио #3
Идентификатор                            : 4
Формат                                   : AC-3
Формат/Информация                        : Audio Coding 3
Профиль формата                          : Dolby Digital
Расширение режима                        : CM (complete main)
Параметр Endianness формата              : Big
Идентификатор кодека                     : A_AC3
Продолжительность                        : 2 ч. 8 м.
Вид битрейта                             : Постоянный
Битрейт                                  : 320 Кбит/сек
Каналы                                   : 2 канала
Расположение каналов                     : Front: L R
Частота                                  : 48,0 КГц
Метод сжатия                             : С потерями
Размер потока                            : 295 Мбайт (1%)
Язык                                     : English
Default                                  : Нет
Forced                                   : Нет
 
Текст #1
Идентификатор                            : 5
Формат                                   : UTF-8
Идентификатор кодека                     : S_TEXT/UTF8
Идентификатор кодека/Информация          : UTF-8 Plain Text
Заголовок                                : Forced
Язык                                     : English
Default                                  : Да
Forced                                   : Да
 
Текст #2
Идентификатор                            : 6
Формат                                   : UTF-8
Идентификатор кодека                     : S_TEXT/UTF8
Идентификатор кодека/Информация          : UTF-8 Plain Text
Язык                                     : English
Default                                  : Нет
Forced                                   : Нет
 
Меню
00:00:00.000                             : en:Chapter 1
00:05:48.348                             : en:Chapter 2
00:08:58.538                             : en:Chapter 3
00:13:24.845                             : en:Chapter 4
00:15:26.675                             : en:Chapter 5
00:19:21.368                             : en:Chapter 6
00:22:19.296                             : en:Chapter 7
00:25:50.757                             : en:Chapter 8
00:34:41.454                             : en:Chapter 9
00:41:11.177                             : en:Chapter 10
00:43:13.841                             : en:Chapter 11
00:48:04.923                             : en:Chapter 12
00:55:29.951                             : en:Chapter 13
00:57:24.315                             : en:Chapter 14
01:01:23.096                             : en:Chapter 15
01:06:03.459                             : en:Chapter 16
01:10:50.996                             : en:Chapter 17
01:14:02.855                             : en:Chapter 18
01:18:48.557                             : en:Chapter 19
01:28:10.535                             : en:Chapter 20
01:37:34.849                             : en:Chapter 21
01:40:24.643                             : en:Chapter 22
01:45:38.081                             : en:Chapter 23
01:53:12.744                             : en:Chapter 24
02:02:03.774                             : en:Chapter 25
02:04:34.508                             : en:Chapter 26
Свернуть
"Скриншоты"
Изображение
Изображение
Изображение
Свернуть
_________________
Изображение
Не в сети
Профиль  
Начать новую темуОтветить на тему  [ 1 сообщение ] 
Вы не можете начинать темы
Вы не можете отвечать на сообщения
Вы не можете редактировать свои сообщения
Вы не можете удалять свои сообщения