Правила форума

  • В этом разделе создание новых тем Запрещено.
  • Для создания новых тем пользуйтесь Корневым разделом DVD и HD фильмы.
Начать новую темуОтветить на тему  [ Сообщений: 7 ] 
Торрент файл
Размер: 13.53 GB • Зарегистрирован: 4 года • Статус: Проверено
Скачан: 495 раз • Желающих скачать: 0 • Поблагодарили: 116 раз
 Раздают: 0  |  0 KB/s  ]   Качают: 0  |  0 KB/s  ] 
 Полного источника не было 8 месяцев 
Сообщения
 Добавлено: 2012-11-10 01:49
Top-releaser
Аватара пользователя
Стаж: 8 лет 9 месяцев
Сообщений: 479
Спасибок: 20188
Лайков: 16
Изображение

Изображение

Ted


«В любви не без медведя»

Год выпуска: 2012
Страна: Изображение США; Universal Pictures, Media Rights Capital
Жанр: Фэнтези, комедия
Продолжительность: 01:30:00
Перевод: Профессиональный (дублированный) [Лицензия], Оригинал
Субтитры: Русские, английские

Режиссёр: Сет МакФарлейн / Seth MacFarlane

В ролях: Марк Уолберг, Мила Кунис, Сет МакФарлейн, Джоэль МакХэйл, Джованни Рибизи, Патрик Варбертон, Мэтт Уолш, Джессика Барт, Аэдин Минкс, Билл Смитрович, Патрик Стюарт, Бреттон Мэнли, Ральф Гармен, Алекс Борштейн, Джон Винер, Лора Вандервурт, Роберт Ву, Джинджер Гонзага, Джессика Строуп, Мелисса Ордвэй, Макс Харрис, Оуэн Кларк, Кристина Доак, Шанти Сок, Сара Фишер, Пэт Ши, Пол Кэмпбелл, Крис Кокс, Генри Пензи, Виера Андреа Мойя, Шоун Торнтон, Эрик Вайнштейн, Дэнни Смит, Майк Никитас, Робин Хэмилтон, Майк Генри, Джонни Ли Девенпорт, Кристина Эверетт

Описание: Джон влюблен в красавицу Лори, у него отличная работа и большие планы на будущее. Но в их отношения вмешивается третий, давний друг Джона — Тед. Он отрывается сутки напролет, предпочитает случайные связи и не желает терять друга. Но никто на самом деле не знает на что он способен, ведь Тед — большой плюшевый медведь.


Качество: BDRip 1080p R5
Формат: MKV

Видео: MPEG-4 AVC, 15.8 Мбит/с, 1920x1040, 23.976 кадр/с

Аудио 1: DTS at 768 Кбит/сек, 6 канала(ов), 48,0 КГц [Дубляж]
Аудио 2: DTS at 1510 Кбит/сек, 6 канала(ов), 48,0 КГц [Оригинал]
Аудио 2: AC3 Dolby Digital, 192 Кбит/сек, 2 канала(ов), 48,0 КГц [Commentary]
Релиз : Изображение Раздача: Изображение


Изображение
MediaInfo

Общее
Уникальный идентификатор : 231349045364527013881716919464080471217 (0xAE0C3495928BA4A08E173FCB315874B1)
Полное имя : C:\Users\Домашний\Desktop\Tretij.lishnij.2012.BDRip.1080p.[nntt].mkv
Формат : Matroska
Размер файла : 13,5 Гбайт
Продолжительность : 1 ч. 46 м.
Общий поток : 18,3 Мбит/сек
Название фильма : IRONCLUB
Дата кодирования : UTC 2012-11-09 12:23:18
Программа кодирования : mkvmerge v4.9.1 ('Ich will') built on Jul 11 2011 23:53:15
Библиотека кодирования : libebml v1.2.1 + libmatroska v1.1.1

Видео
Идентификатор : 1
Формат : AVC
Формат/Информация : Advanced Video Codec
Профиль формата : High@L4.1
Параметр CABAC формата : Да
Параметр ReFrames формата : 4 кадры
Параметры GOP формата : M=9, N=24
Идентификатор кодека : V_MPEG4/ISO/AVC
Продолжительность : 1 ч. 46 м.
Битрейт : 15,8 Мбит/сек
Ширина : 1920 пикс.
Высота : 1040 пикс.
Соотношение сторон : 16:9
Частота кадров : 23,976 кадр/сек
Цветовое пространство : YUV
Подвыборка цветности : 4:2:0
Битовая глубина : 8 бит
Тип развёртки : Прогрессивная
Бит/(Пиксели*Кадры) : 0.330
Размер потока : 11,4 Гбайт (85%)
Заголовок : Ted.2012.1080p.BluRay.x264.DTS-HDChina
Библиотека кодирования : x264 core 128 r2216+688+33 06dac27 tMod+MixAQ [8-bit@4:2:0 X86_64]
Настройки программы : cabac=1 / ref=4 / deblock=1:-3:-3 / analyse=0x3:0x113 / me=umh / subme=11 / psy=1 / fade_compensate=0.00 / psy_rd=1.15:0.00 / mixed_ref=1 / me_range=48 / chroma_me=1 / trellis=2 / 8x8dct=1 / cqm=0 / deadzone=21,11 / fast_pskip=0 / chroma_qp_offset=-2 / threads=18 / lookahead_threads=3 / sliced_threads=0 / nr=0 / decimate=0 / interlaced=0 / bluray_compat=0 / constrained_intra=0 / fgo=0 / bframes=8 / b_pyramid=2 / b_adapt=2 / b_bias=0 / direct=3 / weightb=1 / open_gop=0 / weightp=2 / keyint=240 / keyint_min=24 / scenecut=40 / intra_refresh=0 / rc_lookahead=240 / rc=2pass / mbtree=1 / bitrate=15800 / ratetol=1.0 / qcomp=0.70 / qpmin=0 / qpmax=69 / qpstep=4 / cplxblur=20.0 / qblur=0.5 / ip_ratio=1.10 / aq=4 / aq-strength=0.90 / aq-sensitivity=10.00 / aq-ifactor=1.00 / aq-pfactor=1.00 / aq-bfactor=1.00 / aq2=0
Язык : English

Аудио #1
Идентификатор : 2
Формат : DTS
Формат/Информация : Digital Theater Systems
Идентификатор кодека : A_DTS
Продолжительность : 1 ч. 46 м.
Вид битрейта : Постоянный
Битрейт : 755 Кбит/сек
Канал(ы) : 6 канала(ов)
Расположение каналов : Front: L C R, Side: L R, LFE
Частота : 48,0 КГц
Битовая глубина : 24 бит
Метод сжатия : С потерями
Размер потока : 572 Мбайт (4%)
Заголовок : DTS 5.1 @ 768 kbps - Dub, BD CEE
Язык : Russian

Аудио #2
Идентификатор : 3
Формат : DTS
Формат/Информация : Digital Theater Systems
Идентификатор кодека : A_DTS
Продолжительность : 1 ч. 46 м.
Вид битрейта : Постоянный
Битрейт : 1510 Кбит/сек
Канал(ы) : 6 канала(ов)
Расположение каналов : Front: L C R, Side: L R, LFE
Частота : 48,0 КГц
Битовая глубина : 24 бит
Метод сжатия : С потерями
Размер потока : 1,12 Гбайт (8%)
Заголовок : DTS 5.1 @ 1536 kbps
Язык : English

Аудио #3
Идентификатор : 4
Формат : AC-3
Формат/Информация : Audio Coding 3
Профиль формата : Dolby Digital
Расширение режима : CM (complete main)
Идентификатор кодека : A_AC3
Продолжительность : 1 ч. 46 м.
Вид битрейта : Постоянный
Битрейт : 192 Кбит/сек
Канал(ы) : 2 канала(ов)
Расположение каналов : Front: L R
Частота : 48,0 КГц
Битовая глубина : 16 бит
Метод сжатия : С потерями
Размер потока : 146 Мбайт (1%)
Заголовок : Commentary
Язык : English

Текст #1
Идентификатор : 5
Формат : UTF-8
Идентификатор кодека : S_TEXT/UTF8
Идентификатор кодека/Информация : UTF-8 Plain Text
Заголовок : Forced
Язык : Russian

Текст #2
Идентификатор : 6
Формат : UTF-8
Идентификатор кодека : S_TEXT/UTF8
Идентификатор кодека/Информация : UTF-8 Plain Text
Заголовок : Full
Язык : Russian

Текст #3
Идентификатор : 7
Формат : UTF-8
Идентификатор кодека : S_TEXT/UTF8
Идентификатор кодека/Информация : UTF-8 Plain Text
Язык : English

Текст #4
Идентификатор : 8
Формат : UTF-8
Идентификатор кодека : S_TEXT/UTF8
Идентификатор кодека/Информация : UTF-8 Plain Text
Заголовок : Comentary
Язык : English

Меню
00:00:00.000 : en:00:00:00.000
00:04:05.912 : en:00:04:05.912
00:10:11.819 : en:00:10:11.819
00:15:25.132 : en:00:15:25.132
00:19:31.545 : en:00:19:31.545
00:25:47.879 : en:00:25:47.879
00:30:48.972 : en:00:30:48.972
00:34:31.194 : en:00:34:31.194
00:41:05.045 : en:00:41:05.045
00:47:41.692 : en:00:47:41.692
00:52:33.942 : en:00:52:33.942
00:58:44.395 : en:00:58:44.395
01:03:42.360 : en:01:03:42.360
01:08:20.638 : en:01:08:20.638
01:13:04.421 : en:01:13:04.421
01:17:35.025 : en:01:17:35.025
01:24:12.630 : en:01:24:12.630
01:31:35.490 : en:01:31:35.490
01:35:17.670 : en:01:35:17.670
01:40:34.737 : en:01:40:34.737


Свернуть
Скриншоты

Изображение
Изображение
Изображение
Изображение
Изображение
Свернуть
_________________
Изображение
Изображение
Не в сети
Профиль  
 Добавлено: 2012-11-10 19:09 (спустя 17 часов)
Стаж: 6 лет 11 месяцев
Сообщений: 13
не уходите с раздачи,пли-и-и-и-и-и-з!!!
Не в сети
Профиль  
 Добавлено: 2012-11-12 13:43 (спустя 1 день 18 часов)
Стаж: 5 лет 5 месяцев
Возраст: 27
Сообщений: 73
Встал на раздачу -)
_________________
ПРИВОЖУ ВСЕ ИЗ АМЕРИКИ: iPHone, Imac, ШМОТКИ !!!! ДЕШЕВО Всего 7% за услуги !!!
89036007333
viewtopic.php?f=1696&t=424653
Не в сети
Профиль  
 Добавлено: 2012-11-17 00:23 (спустя 4 дня)
Аватара пользователя
Стаж: 8 лет 2 месяца
Сообщений: 201
Спасибок: 8
Лайков: 4
:ny_tik: ребятки, на раздачу плиз встанте :'(
Не в сети
Профиль  
 Добавлено: 2012-11-17 20:19 (спустя 19 часов)
Стаж: 8 лет 9 месяцев
Сообщений: 8
А что со звуком то ???? где перевод , какие то мудаки по английски чешут
Не в сети
Профиль  
 Добавлено: 2012-11-28 21:30 (спустя 11 дней)
Аватара пользователя
Стаж: 6 лет 11 месяцев
Возраст: 38
Сообщений: 9
гоблинский перевод есть????
Не в сети
Профиль  
 Добавлено: 2012-12-01 19:43 (спустя 2 дня 22 часа)
Стаж: 4 года 2 месяца
Сообщений: 8
ЕСТЬ ПАРУ СМЕШНЫХ ЭПИЗОДОВ , НЕ БОЛЕЕ - ОЦЕНКА 3- ( ПО 5 БАЛЛАМ ) . ЗЛОДЕЙ
Не в сети
Профиль  
Начать новую темуОтветить на тему  [ Сообщений: 7 ] 
Вы не можете начинать темы
Вы не можете отвечать на сообщения
Вы не можете редактировать свои сообщения
Вы не можете удалять свои сообщения