Правила форума

  • В этом разделе создание новых тем Запрещено.
  • Для создания новых тем пользуйтесь Корневым разделом DVD и HD фильмы.
Начать новую темуОтветить на тему  [ Сообщений: 4 ] 
Торрент файл
Размер: 8.63 GB • Зарегистрирован: 3 года 11 месяцев • Статус: Проверено
Скачан: 91 раз • Желающих скачать: 0 • Поблагодарили: 22 раза
 Раздают: 0  |  0 KB/s  ]   Качают: 0  |  0 KB/s  ] 
 Полного источника не было 17 часов 
Сообщения
 Добавлено: 2012-12-08 23:05
Модератор
Аватара пользователя
Стаж: 6 лет 10 месяцев
Возраст: 33
Сообщений: 5908
Спасибок: 61259
Лайков: 3540
Изображение

Третий лишний
Ted


Год выпуска: 2012
Страна: США
Слоган: «В любви не без медведя»
Жанр: фэнтези, комедия
Продолжительность: 01:52:15
Перевод: Авторский (А.Дасевич) (по тексту Гоблина)

Unrated-версия фильма (длиннее театральной примерно на 6 минут). Новые/изменённые сцены (=> отсутствовавшие в переводе Гоблина) допереведены doclogan-ом и xamster-ом.
Озвучка выполнена в рамках сервиса "Озвучивание". Спонсоры: timur1965, sybir, qbot, ARTYq, GKillah, kuyantus, Marvin, daikan, Slimka, 8bitman, olsoda, Данил29, BRATher.

Режиссер: Сет МакФарлейн
Сценарий: Сет МакФарлейн, Алек Салкин, Веллесли Вайлд
Продюсер: Джейсон Кларк, Джон Джейкобс, Сет МакФарлейн, Скотт Стубер, Веллесли Вайлд
Оператор: Майкл Баррет
Композитор: Уолтер Мерфи
В ролях: Марк Уолберг, Сергей Быстрицкий, Мила Кунис, Рамиля Искандер, Сет МакФарлейн, Константин Карасик, Джоэл МакХэйл, Даниил Эльдаров, Джованни Рибизи, Илья Бледный, Патрик Варбертон, Василий Дахненко
Бюджет: $50 000 000
Сборы в США: $218 665 740
Сборы в России: $17 027 010
Сборы в мире: $501 536 866
Мировая премьера: 29 июня 2012
Релиз на DVD: 15 ноября 2012, «Двадцатый Век Фокс СНГ»
Релиз на Blu-ray: 15 ноября 2012, «Двадцатый Век Фокс СНГ»
Описание: Джон влюблен в красавицу Лори, у него отличная работа и большие планы на будущее. Но в их отношения вмешивается третий, давний друг Джона - Тед. Он отрывается сутки напролет, предпочитает случайные связи и не желает терять друга. Но никто на самом деле не знает на что он способен, ведь Тед - большой плюшевый медведь.

Изображение User Rating: 7.102 (40 828)
Изображение User Rating: 7.30 (134 438)
MPAA: R - Лицам до 17 лет обязательно присутствие взрослого
Раздача группы: Изображение
Изображение
Качество: BDRip, 720p
Формат: Matroska
Видео: 1280x694 at 23.976 fps, x264@L4.1, ~7900 kbps avg
Аудио №1: Russian: 48 kHz, DTS, 3/2 (L,C,R,l,r) + LFE ch, ~1536.00 kbps avg
Аудио №3: English: 48 kHz, DTS, 3/2 (L,C,R,l,r) + LFE ch, ~1536.00 kbps avg

Субтитры: Russian, English
mediainfo
Общее
Уникальный идентификатор : 234921235169108635647469286444408977721 (0xB0BC2F23B2C1263180AC757C01833939)
Полное имя : D:\Download\Ted.2012.UNRATED.720p.BluRay.Rus.Eng.HDCLUB.mkv
Формат : Matroska
Версия формата : Version 2
Размер файла : 8,63 Гбайт
Продолжительность : 1 ч. 52 м.
Общий поток : 11,0 Мбит/сек
Название фильма : Ted (2012) [UNRATED] - Release for HDCLUB by doclogan
Дата кодирования : UTC 2012-12-08 12:42:20
Программа кодирования : mkvmerge v5.8.0 ('No Sleep / Pillow') built on Sep 2 2012 15:37:04
Библиотека кодирования : libebml v1.2.3 + libmatroska v1.3.0

Видео
Идентификатор : 1
Формат : AVC
Формат/Информация : Advanced Video Codec
Профиль формата : High@L4.1
Параметр CABAC формата : Да
Параметр ReFrames формата : 9 кадров
Идентификатор кодека : V_MPEG4/ISO/AVC
Продолжительность : 1 ч. 52 м.
Битрейт : 7989 Кбит/сек
Ширина : 1280 пикселей
Высота : 694 пикселя
Соотношение сторон : 16:9
Частота кадров : 23,976 кадра/сек
Цветовое пространство : YUV
Субдискретизация насыщенности : 4:2:0
Битовая глубина : 8 бит
Тип развёртки : Прогрессивная
Бит/(Пиксели*Кадры) : 0.375
Размер потока : 6,09 Гбайт (71%)
Заголовок : Release for HDCLUB by doclogan
Библиотека кодирования : x264 core 129 r2230 1cffe9f
Настройки программы : cabac=1 / ref=9 / deblock=1:-3:-3 / analyse=0x3:0x113 / me=tesa / subme=11 / psy=1 / psy_rd=0.98:0.00 / mixed_ref=1 / me_range=32 / chroma_me=1 / trellis=2 / 8x8dct=1 / cqm=0 / deadzone=21,11 / fast_pskip=0 / chroma_qp_offset=-2 / threads=12 / lookahead_threads=2 / sliced_threads=0 / nr=0 / decimate=1 / interlaced=0 / bluray_compat=0 / constrained_intra=0 / bframes=6 / b_pyramid=2 / b_adapt=2 / b_bias=0 / direct=3 / weightb=1 / open_gop=0 / weightp=2 / keyint=240 / keyint_min=23 / scenecut=40 / intra_refresh=0 / rc_lookahead=40 / rc=2pass / mbtree=1 / bitrate=7989 / ratetol=1.0 / qcomp=0.71 / qpmin=0 / qpmax=69 / qpstep=4 / cplxblur=20.0 / qblur=0.5 / ip_ratio=1.40 / aq=2:0.80
Язык : English
Default : Да
Forced : Нет

Аудио #1
Идентификатор : 2
Формат : DTS
Формат/Информация : Digital Theater Systems
Идентификатор кодека : A_DTS
Продолжительность : 1 ч. 52 м.
Вид битрейта : Постоянный
Битрейт : 1510 Кбит/сек
Каналы : 6 каналов
Расположение каналов : Front: L C R, Side: L R, LFE
Частота : 48,0 КГц
Битовая глубина : 24 бит
Метод сжатия : С потерями
Размер потока : 1,18 Гбайт (14%)
Заголовок : DTS 5.1 @ 1.5 Mbps – Одноголосый закадровый (А.Дасевич по тексту Гоблина)
Язык : Russian
Default : Да
Forced : Нет

Аудио #2
Идентификатор : 3
Формат : DTS
Формат/Информация : Digital Theater Systems
Идентификатор кодека : A_DTS
Продолжительность : 1 ч. 52 м.
Вид битрейта : Постоянный
Битрейт : 1510 Кбит/сек
Каналы : 6 каналов
Расположение каналов : Front: L C R, Side: L R, LFE
Частота : 48,0 КГц
Битовая глубина : 24 бит
Метод сжатия : С потерями
Размер потока : 1,18 Гбайт (14%)
Заголовок : DTS 5.1 @ 1.5 Mbps
Язык : English
Default : Нет
Forced : Нет

Текст #1
Идентификатор : 4
Формат : UTF-8
Идентификатор кодека : S_TEXT/UTF8
Идентификатор кодека/Информация : UTF-8 Plain Text
Заголовок : Гоблин
Язык : Russian
Default : Нет
Forced : Нет

Текст #2
Идентификатор : 5
Формат : UTF-8
Идентификатор кодека : S_TEXT/UTF8
Идентификатор кодека/Информация : UTF-8 Plain Text
Язык : English
Default : Нет
Forced : Нет

Меню
00:00:00.000 : en:00:00:00.000
00:04:15.255 : en:00:04:15.255
00:11:35.069 : en:00:11:35.069
00:17:18.204 : en:00:17:18.204
00:21:47.514 : en:00:21:47.514
00:28:31.376 : en:00:28:31.376
00:34:01.331 : en:00:34:01.331
00:37:43.553 : en:00:37:43.553
00:44:59.155 : en:00:44:59.155
00:52:13.171 : en:00:52:13.171
00:57:34.826 : en:00:57:34.826
01:03:45.280 : en:01:03:45.280
01:08:43.244 : en:01:08:43.244
01:13:21.522 : en:01:13:21.522
01:18:08.892 : en:01:18:08.892
01:22:39.496 : en:01:22:39.496
01:29:17.101 : en:01:29:17.101
01:37:26.465 : en:01:37:26.465
01:41:08.687 : en:01:41:08.687
01:46:46.608 : en:01:46:46.608
Свернуть
"Знаете ли Вы, что..."
  • Отец и сын, сыгранные Джованни Рибизи и Аэдином Минксом, представляются Донни и Робертом. Братьев Марка Уолберга зовут Донни и Роберт.
Свернуть
Скриншоты

Изображение
Изображение
Изображение
Изображение
Изображение
Изображение
Свернуть
_________________
ИзображениеИзображение Изображение
Изображение
 tany1984 и di-ys1 нравится это.
Не в сети
Профиль  
 Добавлено: 2012-12-09 10:42 (спустя 11 часов)
Музыкоед
Аватара пользователя
Стаж: 7 лет 4 месяца
Сообщений: 2111
Лайков: 466
Посмотрите на список актёров! Как пел Высоцкий - "Там на четверть - бывший наш народ!"
Не в сети
Профиль  
 Добавлено: 2012-12-09 11:41 (спустя 59 минут)
Аватара пользователя
Стаж: 4 года 1 месяц
Возраст: 21
Сообщений: 1360
Лайков: 7
aha tochno
_________________
Если ты это читаешь, значит ты неудачник.
Не в сети
Профиль  
 Добавлено: 2012-12-09 19:03 (спустя 7 часов)
DVD Release Group
Аватара пользователя
Стаж: 7 лет 9 месяцев
Сообщений: 364
Спасибок: 3087
Лайков: 10
Alright karim - Давай Карим... (прим. Карим Абдул-Джаббар — считается одним из лучших игроков в истории баскетбола).
you suck karim - Отстой ты Карим.
Причем здесь трех очковый бросок и т.д., не совсем по тексту.
Не точнее чем Шакил - из дубляжки.
Не в сети
Профиль  
Начать новую темуОтветить на тему  [ Сообщений: 4 ] 
Вы не можете начинать темы
Вы не можете отвечать на сообщения
Вы не можете редактировать свои сообщения
Вы не можете удалять свои сообщения