Правила форума

  • В этом разделе создание новых тем Запрещено.
  • Для создания новых тем пользуйтесь Корневым разделом DVD и HD фильмы.
Начать новую темуОтветить на тему  [ Сообщений: 2 ] 
Торрент файл
Размер: 4.07 GB • Зарегистрирован: 3 года 7 месяцев • Статус: Проверено
Скачан: 27 раз • Желающих скачать: 0 • Поблагодарили: 10 раз
 Раздают: 0  |  0 KB/s  ]   Качают: 0  |  0 KB/s  ] 
 Полного источника не было 2 года 8 месяцев 
Сообщения
 Добавлено: 2013-04-10 10:03
Аватара пользователя
Стаж: 7 лет 2 месяца
Сообщений: 7167
Спасибок: 82015
Лайков: 2438
Тревожная кнопка

Panic Button

Изображение


Год выпуска: 2011
Страна: Изображение Великобритания
Слоган: «Не забудьте ознакомиться с правилами.»
Жанр: Ужасы, триллер
Продолжительность: 01:35:39
Перевод: Профессиональный (многоголосый закадровый)

Режиссёр: Крис Кроу
В ролях: Скарлет Джонсон, Джек Гордон, Майкл Джибсон, Элен Риз, Джошуа Ричардс, Верн Рэй, Сара Паркс, Пол Джибсон, Тобиас Йон
Описание: Четверо молодых людей выиграли поездку в Нью-Йорк, любезно предоставленную одной из социальных сетей. Когда они поднимаются на борт частного самолета, их просят отказаться от своих мобильных телефонов и принять участие в очень необычной игре…Им просто нужно отвечать на вопросы, но постепенно выясняется, что игра идет на их жизнь, на высоте 10 километров над океаном. И нет никакой возможности для побега!


Качество: BDRip 720p
Формат: MKV
Видео кодек: H264 (AVC)
Аудио кодек: AC3 (Dolby Digital)
Видео: 1 280x544, 23.976 fps, 5 000 Kbps
Аудио #1: 48.0 KHz, 6 ch, 448 Kbps [Профессиональный (многоголосый закадровый)] Лицензия
Аудио #2: 48.0 KHz, 6 ch, 640 Kbps [Оригинальная звуковая дорожка]
Изображение
Изображение
Скриншоты
Изображение

Изображение

Изображение

Изображение

Изображение
Свернуть
MI
General
Unique ID : 222875485858173896460771326809440882637 (0xA7AC41D86911F0CB9BE7ED9217258FCD)
Complete name : Тревожная кнопка.2011.mkv
Format : Matroska
Format version : Version 2
File size : 4.07 GiB
Duration : 1h 35mn
Overall bit rate : 6 088 Kbps
Encoded date : UTC 2013-04-09 16:49:56
Writing application : mkvmerge v5.2.0 ('I can't explain') built on Dec 18 2011 18:12:03
Writing library : libebml v1.2.3 + libmatroska v1.3.0

Video
ID : 1
Format : AVC
Format/Info : Advanced Video Codec
Format profile : High@L4.1
Format settings, CABAC : Yes
Format settings, ReFrames : 4 frames
Codec ID : V_MPEG4/ISO/AVC
Duration : 1h 35mn
Bit rate : 5 000 Kbps
Width : 1 280 pixels
Height : 544 pixels
Display aspect ratio : 2.35:1
Frame rate : 23.976 fps
Color space : YUV
Chroma subsampling : 4:2:0
Bit depth : 8 bits
Scan type : Progressive
Bits/(Pixel*Frame) : 0.299
Stream size : 3.26 GiB (80%)
Title : Panic.Button.2011.720p.Bluray.DD5.1.x264
Writing library : x264 core 116 r2057 0ba8a9c
Encoding settings : cabac=1 / ref=3 / deblock=1:-3:-3 / analyse=0x3:0x133 / me=umh / subme=10 / psy=1 / psy_rd=1.00:0.00 / mixed_ref=1 / me_range=32 / chroma_me=1 / trellis=2 / 8x8dct=1 / cqm=0 / deadzone=21,11 / fast_pskip=0 / chroma_qp_offset=-2 / threads=12 / sliced_threads=0 / nr=0 / decimate=0 / interlaced=0 / bluray_compat=0 / constrained_intra=0 / bframes=7 / b_pyramid=2 / b_adapt=2 / b_bias=0 / direct=3 / weightb=1 / open_gop=0 / weightp=2 / keyint=250 / keyint_min=23 / scenecut=40 / intra_refresh=0 / rc_lookahead=40 / rc=2pass / mbtree=0 / bitrate=5000 / ratetol=1.0 / qcomp=0.65 / qpmin=0 / qpmax=40 / qpstep=4 / cplxblur=20.0 / qblur=0.5 / vbv_maxrate=50000 / vbv_bufsize=50000 / nal_hrd=none / ip_ratio=1.25 / pb_ratio=1.25 / aq=1:0.65
Language : English
Default : Yes
Forced : Yes

Audio #1
ID : 2
Format : AC-3
Format/Info : Audio Coding 3
Mode extension : CM (complete main)
Format settings, Endianness : Big
Codec ID : A_AC3
Duration : 1h 35mn
Bit rate mode : Constant
Bit rate : 448 Kbps
Channel(s) : 6 channels
Channel positions : Front: L C R, Side: L R, LFE
Sampling rate : 48.0 KHz
Bit depth : 16 bits
Compression mode : Lossy
Stream size : 307 MiB (7%)
Title : DD 5.1 @ 448 kbps - MVO, R5
Language : Russian
Default : Yes
Forced : Yes

Audio #2
ID : 3
Format : AC-3
Format/Info : Audio Coding 3
Mode extension : CM (complete main)
Format settings, Endianness : Big
Codec ID : A_AC3
Duration : 1h 35mn
Bit rate mode : Constant
Bit rate : 640 Kbps
Channel(s) : 6 channels
Channel positions : Front: L C R, Side: L R, LFE
Sampling rate : 48.0 KHz
Bit depth : 16 bits
Compression mode : Lossy
Stream size : 438 MiB (11%)
Title : DD 5.1 @ 640 kbps
Language : English
Default : No
Forced : No

Menu
00:00:00.000 : en:00:00:00.000
00:07:14.517 : en:00:07:14.517
00:14:09.057 : en:00:14:09.057
00:20:23.347 : en:00:20:23.347
00:26:06.440 : en:00:26:06.440
00:30:43.717 : en:00:30:43.717
00:36:19.886 : en:00:36:19.886
00:44:53.274 : en:00:44:53.274
00:50:07.129 : en:00:50:07.129
00:54:15.252 : en:00:54:15.252
00:59:44.873 : en:00:59:44.873
01:06:36.784 : en:01:06:36.784
01:12:26.592 : en:01:12:26.592
01:18:09.560 : en:01:18:09.560
01:23:18.452 : en:01:23:18.452
01:28:51.326 : en:01:28:51.326
01:31:57.554 : en:01:31:57.554


Свернуть
 MiSkam и rotametr нравится это.
Не в сети
Профиль  
 Добавлено: 2013-06-21 09:27 (спустя 2 месяца 10 дней)
Стаж: 8 лет 1 месяц
Сообщений: 85
Спасибок: 95
ни как..или..на раз.....
Не в сети
Профиль  
Начать новую темуОтветить на тему  [ Сообщений: 2 ] 
Вы не можете начинать темы
Вы не можете отвечать на сообщения
Вы не можете редактировать свои сообщения
Вы не можете удалять свои сообщения