Правила форума

  • В этом разделе создание новых тем Запрещено.
  • Для создания новых тем пользуйтесь Корневым разделом DVD и HD фильмы.
Начать новую темуОтветить на тему  [ 1 сообщение ] 
Торрент файл
Размер: 4.66 GB • Зарегистрирован: 3 года 5 месяцев • Статус: Проверено
Скачан: 106 раз • Желающих скачать: 0 • Поблагодарили: 23 раза
 Раздают: 0  |  0 KB/s  ]   Качают: 0  |  0 KB/s  ] 
 Полного источника не было 8 месяцев 
Сообщения
 Добавлено: 2013-06-12 02:38
Модератор
Аватара пользователя
Стаж: 8 лет 7 месяцев
Сообщений: 4965
Спасибок: 110254
Лайков: 18
Изображение

Тревожный вызов / The Call


Год выпуска: 2013
Страна: США
Слоган:
«Из 188 миллионов звонков, этот предназначался персонально ей»


Жанр: триллер
Продолжительность: 01:34:13
Перевод: Профессиональный (полное дублирование)

Режиссер: Брэд Андерсон / Brad Anderson
Сценарий: Ричард Д’Овидио / Richard D'Ovidio, Николь Д’Овидио / Nicole D'Ovidio, Джон Бокенкамп / Jon Bokenkamp
Продюсер: Брэдли Галло / Bradley Gallo, Джеффри Грауп / Jeffrey Graup, Майкл А. Хелфант / Michael A. Helfant, Майкл Луизи / Michael Luisi, Роберт Стейн / Robert Stein
Оператор: Том Яцко / Tom Yatsko
Композитор: Джон Дебни / John Debney

В ролях: Холли Берри (Jordan Turner), Эбигейл Бреслин (Casey Welson), Моррис Честнат (Officer Paul Phillips), Майкл Эклунд (Michael Foster), Майкл Империоли (Alan Denado), Дэвид Отунга (Officer Jake Devans), Жустина Мачадо (Rachel), Хосе Суньига (Marco), Рома Маффиа (Maddy), Эви Томпсон (Leah Templeton), Дениз Дауз (Flora), Элла Рэй Пек (Autumn)
Бюджет: $13 000 000
Сборы в США: $51 872 378
Сборы в России: $1 569 438

Мировая премьера: 15 марта 2013
Релиз на DVD: 13 июня 2013, «Новый Диск», «New Dream media»
Описание:Фильм расскажет про оператора колл-центра 911, куда поступает звонок от девочки-подростка, ставшей жертвой маньяка. Героине предстоит столкнуться со своими кошмарами, чтобы спасти девушку.
Изображение 6.7/10 (6,805 users) Изображение 7.188 (2,819)
MPAA: Изображение - Лицам до 17 лет обязательно присутствие взрослого
Релиз группы: Изображение
Раздача группы: Изображение
Изображение
Качество: BDRip 720p
Формат: MKV

Видео: 5127 kb/s, 1280x696
Аудио №1: Russian: AC3, 448 kb/s (6 ch)
Аудио №2: English: DTS, 1510 Kb/s (6 ch)
Дополнительно: Сохранены оригинальные чаптеры как на Blu-Ray
"Знаете ли Вы, что..."
  • Холли Берри была взята на главную роль, когда режиссером фильма еще был Джоэл Шумахер. Затем Шумахер покинул проект, и на его место пришел Брэд Андерсон. Берри была вынуждена отказаться от своей роли из-за несогласованности расписаний съемок, но после переноса даты выхода фильма она все же вернулась.
Свернуть
"NFO"
Format : Matroska
Format version : Version 4 / Version 2
File size : 4.66 GiB
Duration : 1h 34mn
Overall bit rate : 7 084 Kbps
Movie name : IRONCLUB
Encoded date : UTC 2013-06-11 22:31:12
Writing application : mkvmerge v6.2.0 ('Promised Land') built on Apr 28 2013 12:22:01
Writing library : libebml v1.3.0 + libmatroska v1.4.0

Video
ID : 1
Format : AVC
Format/Info : Advanced Video Codec
Format profile : High@L4.1
Format settings, CABAC : Yes
Format settings, ReFrames : 5 frames
Codec ID : V_MPEG4/ISO/AVC
Duration : 1h 34mn
Bit rate : 5 127 Kbps
Width : 1 280 pixels
Height : 696 pixels
Display aspect ratio : 1.85:1
Frame rate : 23.976 fps
Color space : YUV
Chroma subsampling : 4:2:0
Bit depth : 8 bits
Scan type : Progressive
Bits/(Pixel*Frame) : 0.240
Stream size : 3.28 GiB (70%)
Title : The.Call.2013.720p.BluRay.x264-SPARKS
Writing library : x264 core 133 r2334 a3ac64b
Encoding settings : cabac=1 / ref=5 / deblock=1:0:0 / analyse=0x3:0x133 / me=umh / subme=7 / psy=1 / psy_rd=1.00:0.00 / mixed_ref=1 / me_range=16 / chroma_me=1 / trellis=1 / 8x8dct=1 / cqm=0 / deadzone=21,11 / fast_pskip=0 / chroma_qp_offset=-2 / threads=12 / lookahead_threads=2 / sliced_threads=0 / nr=0 / decimate=1 / interlaced=0 / bluray_compat=0 / constrained_intra=0 / bframes=3 / b_pyramid=2 / b_adapt=1 / b_bias=0 / direct=1 / weightb=1 / open_gop=0 / weightp=2 / keyint=250 / keyint_min=23 / scenecut=40 / intra_refresh=0 / rc_lookahead=40 / rc=2pass / mbtree=1 / bitrate=5127 / ratetol=1.0 / qcomp=0.60 / qpmin=0 / qpmax=69 / qpstep=4 / cplxblur=20.0 / qblur=0.5 / ip_ratio=1.40 / aq=1:1.00
Language : English
Default : Yes
Forced : Yes

Audio #1
ID : 2
Format : AC-3
Format/Info : Audio Coding 3
Mode extension : CM (complete main)
Format settings, Endianness : Big
Codec ID : A_AC3
Duration : 1h 34mn
Bit rate mode : Constant
Bit rate : 448 Kbps
Channel(s) : 6 channels
Channel positions : Front: L C R, Side: L R, LFE
Sampling rate : 48.0 KHz
Bit depth : 16 bits
Compression mode : Lossy
Stream size : 302 MiB (6%)
Title : DD 5.1 @ 448 kbps - Dub, R5
Language : Russian
Default : Yes
Forced : Yes

Audio #2
ID : 3
Format : DTS
Format/Info : Digital Theater Systems
Codec ID : A_DTS
Duration : 1h 34mn
Bit rate mode : Constant
Bit rate : 1 510 Kbps
Channel(s) : 6 channels
Channel positions : Front: L C R, Side: L R, LFE
Sampling rate : 48.0 KHz
Bit depth : 24 bits
Compression mode : Lossy
Stream size : 1 018 MiB (21%)
Title : DTS 5.1 @ 1536 kbps
Language : English
Default : No
Forced : No

Menu
00:00:00.000 : en:00:00:00.000
00:06:26.678 : en:00:06:26.678
00:12:30.500 : en:00:12:30.500
00:17:15.034 : en:00:17:15.034
00:24:12.409 : en:00:24:12.409
00:30:43.759 : en:00:30:43.759
00:36:00.075 : en:00:36:00.075
00:42:41.726 : en:00:42:41.726
00:46:51.892 : en:00:46:51.892
00:49:57.912 : en:00:49:57.912
00:54:50.913 : en:00:54:50.913
01:01:31.563 : en:01:01:31.563
01:06:08.173 : en:01:06:08.173
01:12:30.638 : en:01:12:30.638
01:20:04.216 : en:01:20:04.216
01:26:01.782 : en:01:26:01.782
Свернуть
"Скриншоты"

Изображение

Изображение

Изображение

Свернуть
_________________
Изображение Изображение Изображение
Билайн / АДС добавляйте ретрекер, чтобы качать на скорости 100 Мбит/с
Cкрытый текст
Изображение
Свернуть
Не в сети
Профиль  
Начать новую темуОтветить на тему  [ 1 сообщение ] 
Вы не можете начинать темы
Вы не можете отвечать на сообщения
Вы не можете редактировать свои сообщения
Вы не можете удалять свои сообщения