Правила форума

  • В этом разделе создание новых тем Запрещено.
  • Для создания новых тем пользуйтесь Корневым разделом DVD и HD фильмы.
Начать новую темуОтветить на тему  [ Сообщений: 2 ] 
Торрент файл
Размер: 11.11 GB • Зарегистрирован: 3 года 5 месяцев • Статус: Проверено
Скачан: 282 раза • Желающих скачать: 0 • Поблагодарили: 65 раз
 Раздают: 0  |  0 KB/s  ]   Качают: 0  |  0 KB/s  ] 
 Полного источника не было 16 дней 
Сообщения
 Добавлено: 2013-06-12 23:17
Модератор
Аватара пользователя
Стаж: 8 лет 7 месяцев
Сообщений: 4965
Спасибок: 110254
Лайков: 18
Изображение

Тревожный вызов / The Call


Год выпуска: 2013
Страна: США
Слоган:
«Из 188 миллионов звонков, этот предназначался персонально ей»


Жанр: триллер
Продолжительность: 01:34:13
Перевод: Профессиональный (полное дублирование)
Субтитры: Английские, румынские
Режиссер: Брэд Андерсон / Brad Anderson
Сценарий: Ричард Д’Овидио / Richard D'Ovidio, Николь Д’Овидио / Nicole D'Ovidio, Джон Бокенкамп / Jon Bokenkamp
Продюсер: Брэдли Галло / Bradley Gallo, Джеффри Грауп / Jeffrey Graup, Майкл А. Хелфант / Michael A. Helfant, Майкл Луизи / Michael Luisi, Роберт Стейн / Robert Stein
Оператор: Том Яцко / Tom Yatsko
Композитор: Джон Дебни / John Debney

В ролях: Холли Берри (Jordan Turner), Эбигейл Бреслин (Casey Welson), Моррис Честнат (Officer Paul Phillips), Майкл Эклунд (Michael Foster), Майкл Империоли (Alan Denado), Дэвид Отунга (Officer Jake Devans), Жустина Мачадо (Rachel), Хосе Суньига (Marco), Рома Маффиа (Maddy), Эви Томпсон (Leah Templeton), Дениз Дауз (Flora), Элла Рэй Пек (Autumn)
Бюджет: $13 000 000
Сборы в США: $51 872 378
Сборы в России: $1 569 438

Мировая премьера: 15 марта 2013
Релиз на DVD: 13 июня 2013, «Новый Диск», «New Dream media»
Описание:Фильм расскажет про оператора колл-центра 911, куда поступает звонок от девочки-подростка, ставшей жертвой маньяка. Героине предстоит столкнуться со своими кошмарами, чтобы спасти девушку.
Изображение 6.7/10 (6,805 users) Изображение 7.188 (2,819)
MPAA: Изображение - Лицам до 17 лет обязательно присутствие взрослого
Раздача группы: Изображение
Изображение
Качество: BDRip 1080p
Формат: MKV

Видео: MPEG-4 AVC, 14.6 Мбит/с, 1920x1040
Аудио №1: Russian: AC3, 448 kb/s (6 ch)
Аудио №2: English: DTS, 1510 Kb/s (6 ch)

"Знаете ли Вы, что..."
  • Холли Берри была взята на главную роль, когда режиссером фильма еще был Джоэл Шумахер. Затем Шумахер покинул проект, и на его место пришел Брэд Андерсон. Берри была вынуждена отказаться от своей роли из-за несогласованности расписаний съемок, но после переноса даты выхода фильма она все же вернулась.
Свернуть
"NFO"
Format : Matroska
File size : 11.1 GiB
Duration : 1h 34mn
Overall bit rate : 16.9 Mbps
Encoded date : UTC 2013-06-12 12:28:14
Writing application : mkvmerge v4.9.1 ('Ich will') built on Jul 11 2011 23:53:15
Writing library : libebml v1.2.1 + libmatroska v1.1.1

Video
ID : 1
Format : AVC
Format/Info : Advanced Video Codec
Format profile : High@L4.1
Format settings, CABAC : Yes
Format settings, ReFrames : 4 frames
Codec ID : V_MPEG4/ISO/AVC
Duration : 1h 34mn
Bit rate : 14.6 Mbps
Width : 1 920 pixels
Height : 1 040 pixels
Display aspect ratio : 16:9
Frame rate : 23.976 fps
Color space : YUV
Chroma subsampling : 4:2:0
Bit depth : 8 bits
Scan type : Progressive
Bits/(Pixel*Frame) : 0.305
Stream size : 9.60 GiB (86%)
Writing library : x264 core 132 r2323+704+51 d571b1c tMod [8-bit@4:2:0 X86_64]
Encoding settings : cabac=1 / ref=4 / deblock=1:-3:-3 / analyse=0x3:0x113 / me=umh / subme=11 / psy=1 / fade_compensate=0.00 / psy_rd=1.05:0.00 / mixed_ref=1 / me_range=32 / chroma_me=1 / trellis=2 / 8x8dct=1 / cqm=0 / deadzone=21,11 / fast_pskip=0 / chroma_qp_offset=-2 / threads=36 / lookahead_threads=6 / sliced_threads=0 / nr=0 / decimate=0 / interlaced=0 / bluray_compat=0 / constrained_intra=0 / fgo=0 / bframes=8 / b_pyramid=2 / b_adapt=2 / b_bias=0 / direct=3 / weightb=1 / open_gop=0 / weightp=2 / keyint=240 / keyint_min=24 / scenecut=40 / intra_refresh=0 / rc=crf / mbtree=0 / crf=18.0000 / qcomp=0.70 / qpmin=0 / qpmax=69 / qpstep=4 / ip_ratio=1.20 / pb_ratio=1.20 / aq=4:0.85 / aq-sensitivity=10.00 / aq-factor=1.00:1.00:1.00 / aq2=0 / aq3=0
Language : English

Audio #1
ID : 2
Format : DTS
Format/Info : Digital Theater Systems
Codec ID : A_DTS
Duration : 1h 34mn
Bit rate mode : Constant
Bit rate : 1 510 Kbps
Channel(s) : 6 channels
Channel positions : Front: L C R, Side: L R, LFE
Sampling rate : 48.0 KHz
Bit depth : 24 bits
Compression mode : Lossy
Stream size : 1 018 MiB (9%)
Language : English

Audio #2
ID : 3
Format : AC-3
Format/Info : Audio Coding 3
Mode extension : CM (complete main)
Codec ID : A_AC3
Duration : 1h 34mn
Bit rate mode : Constant
Bit rate : 448 Kbps
Channel(s) : 6 channels
Channel positions : Front: L C R, Side: L R, LFE
Sampling rate : 48.0 KHz
Bit depth : 16 bits
Compression mode : Lossy
Stream size : 302 MiB (3%)
Language : Russian

Text #1
ID : 4
Format : UTF-8
Codec ID : S_TEXT/UTF8
Codec ID/Info : UTF-8 Plain Text
Language : English

Text #2
ID : 5
Format : UTF-8
Codec ID : S_TEXT/UTF8
Codec ID/Info : UTF-8 Plain Text
Language : Romanian
Свернуть
"Скриншоты"

Изображение

Изображение

Изображение

Свернуть
_________________
Изображение Изображение Изображение
Билайн / АДС добавляйте ретрекер, чтобы качать на скорости 100 Мбит/с
Cкрытый текст
Изображение
Свернуть
Не в сети
Профиль  
 Добавлено: 2013-06-16 12:24 (спустя 3 дня)
Аватара пользователя
Стаж: 8 лет 3 месяца
Возраст: 33
Сообщений: 613
Спасибок: 529
Лайков: 1
Конец какой-то стремный, а так фильмец прикольный....
Не в сети
Профиль  
Начать новую темуОтветить на тему  [ Сообщений: 2 ] 
Вы не можете начинать темы
Вы не можете отвечать на сообщения
Вы не можете редактировать свои сообщения
Вы не можете удалять свои сообщения