Правила форума

  • В этом разделе создание новых тем Запрещено.
  • Для создания новых тем пользуйтесь Корневым разделом DVD и HD фильмы.
Начать новую темуОтветить на тему  [ 1 сообщение ] 
Торрент файл
Размер: 7.81 GB • Зарегистрирован: 4 года 2 месяца • Статус: Проверено
Скачан: 23 раза • Желающих скачать: 0 • Поблагодарили: 1 раз
 Раздают: 0  |  0 KB/s  ]   Качают: 0  |  0 KB/s  ] 
 Полного источника не было 2 года 11 месяцев 
Сообщения
 Добавлено: 2012-09-30 09:58
Top-seeder
Аватара пользователя
Стаж: 9 лет
Сообщений: 1399
Спасибок: 28651
Лайков: 8
Три часа на побег / A bout portant

Изображение

Перевод: Профессиональный (многоголосый закадровый)
Субтитры: русские, украинские, английские
Формат: BDRip, MKV, H.264, AC3/DTS
Страна: Франция
Режиссер: Фред Кавайе
Жанр: боевик, триллер, криминал
Продолжительность: 01:24:01
Год выпуска: 2010

В ролях: Жиль Леллуш, Рошди Зем, Жерар Ланвен, Елена Анайя, Мирей Перье, Клер Перо, Мусса Мааскри, Пьер Бенуа, Валери Дэшвуд, Вёрджил Брэмли

Описание: Профессия Сэмюэля Перрье — спасать людей. Но в этот раз медбрат спас ну совсем «не того» парня. И вот теперь его беременную жену похитили бандиты, чтоб заставить Сэмюэля помочь их пахану свалить из больницы. Чтобы спасти жену и выжить самому, ему предстоит выиграть смертельные гонки на выживание с бандитами и полицейскими не только по улицам Парижа, но и под землей.

Видео: 1280x544p (2,35:1), 24.000 fps, AVC MPEG-4 (x264), High@L4.1 ~9361 Kbps avg, 0,560 bits/(pixel*frame)
Аудио#1: Русский 48 kHz, AC3, 6 ch, 640 kbps avg [Профессиональный (многоголосый закадровый)]
Аудио#2: Русский 48 kHz, DTS, 6 ch, 1510 kbps avg [Авторский (одноголосый)(А.Гаврилов)]
Аудио#3: Французский 48 kHz, DTS, 6 ch, 1510 kbps avg [Оригинал]

Слоган: «Только три часа, чтобы спасти жену и доказать свою невиновность»

Награды
Сатурн, 2012 год

Номинации (1):

Лучший иностранный фильм
Свернуть

MI
Общее
Уникальный идентификатор : 203370342214122140884263320656587383726 (0x98FFB40410F46A3F8764D68FE4B9E3AE)
Полное имя : D:\Закачки\Три часа на побег.mkv
Формат : Matroska
Размер файла : 7,81 Гбайт
Продолжительность : 1 ч. 24 м.
Общий поток : 13,3 Мбит/сек
Название фильма : -Talian-
Дата кодирования : UTC 2012-09-29 17:40:08
Программа кодирования : mkvmerge v4.8.0 ('I Got The...') сборка от May 24 2011 03:12:58
Библиотека кодирования : libebml v1.2.0 + libmatroska v1.1.0

Видео
Идентификатор : 1
Формат : AVC
Формат/Информация : Advanced Video Codec
Профиль формата : High@L4.1
Параметр CABAC формата : Да
Параметр ReFrames формата : 10 кадров
Параметры GOP формата : M=1, N=24
Режим смешивания : Header stripping
Идентификатор кодека : V_MPEG4/ISO/AVC
Продолжительность : 1 ч. 24 м.
Битрейт : 9383 Кбит/сек
Ширина : 1280 пикс.
Высота : 544 пикс.
Соотношение сторон : 2,35:1
Частота кадров : 24,000 кадр/сек
Цветовое пространство : YUV
Подвыборка цветности : 4:2:0
Битовая глубина : 8 бит
Тип развёртки : Прогрессивная
Бит/(Пиксели*Кадры) : 0.561
Размер потока : 5,51 Гбайт (71%)
Заголовок : À.bout.portant.2010.720p.BluRay.DD5.1.x264-EbP
Библиотека кодирования : x264 core 116 r2074 2641b9e
Настройки программы : cabac=1 / ref=10 / deblock=1:-3:-3 / analyse=0x3:0x113 / me=umh / subme=10 / psy=1 / psy_rd=1.25:0.00 / mixed_ref=1 / me_range=16 / chroma_me=1 / trellis=2 / 8x8dct=1 / cqm=0 / deadzone=21,11 / fast_pskip=0 / chroma_qp_offset=-2 / threads=6 / sliced_threads=0 / nr=0 / decimate=0 / interlaced=0 / bluray_compat=0 / constrained_intra=0 / bframes=7 / b_pyramid=2 / b_adapt=2 / b_bias=0 / direct=3 / weightb=1 / open_gop=0 / weightp=2 / keyint=250 / keyint_min=24 / scenecut=40 / intra_refresh=0 / rc=crf / mbtree=0 / crf=16.7 / qcomp=0.60 / qpmin=0 / qpmax=69 / qpstep=4 / ip_ratio=1.40 / pb_ratio=1.30 / aq=1:0.50
Язык : English

Аудио #1
Идентификатор : 2
Формат : AC-3
Формат/Информация : Audio Coding 3
Расширение режима : CM (complete main)
Режим смешивания : Header stripping
Идентификатор кодека : A_AC3
Продолжительность : 1 ч. 24 м.
Вид битрейта : Постоянный
Битрейт : 640 Кбит/сек
Каналы : 6 каналов
Расположение каналов : Front: L C R, Side: L R, LFE
Частота : 48,0 КГц
Битовая глубина : 16 бит
Метод сжатия : С потерями
Размер потока : 385 Мбайт (5%)
Заголовок : DUB
Язык : Russian

Аудио #2
Идентификатор : 3
Формат : DTS
Формат/Информация : Digital Theater Systems
Режим смешивания : Header stripping
Идентификатор кодека : A_DTS
Продолжительность : 1 ч. 24 м.
Вид битрейта : Постоянный
Битрейт : 1510 Кбит/сек
Каналы : 6 каналов
Расположение каналов : Front: L C R, Side: L R, LFE
Частота : 48,0 КГц
Битовая глубина : 24 бит
Метод сжатия : С потерями
Задержка видео : 11 мс.
Размер потока : 907 Мбайт (11%)
Заголовок : AVO-Гаврилов
Язык : Russian

Аудио #3
Идентификатор : 4
Формат : DTS
Формат/Информация : Digital Theater Systems
Режим смешивания : Header stripping
Идентификатор кодека : A_DTS
Продолжительность : 1 ч. 24 м.
Вид битрейта : Постоянный
Битрейт : 1510 Кбит/сек
Каналы : 6 каналов
Расположение каналов : Front: L C R, Side: L R, LFE
Частота : 48,0 КГц
Битовая глубина : 24 бит
Метод сжатия : С потерями
Задержка видео : 11 мс.
Размер потока : 907 Мбайт (11%)
Заголовок : Original
Язык : French

Текст #1
Идентификатор : 5
Формат : UTF-8
Идентификатор кодека : S_TEXT/UTF8
Идентификатор кодека/Информация : UTF-8 Plain Text
Заголовок : Sub
Язык : Russian

Текст #2
Идентификатор : 6
Формат : UTF-8
Идентификатор кодека : S_TEXT/UTF8
Идентификатор кодека/Информация : UTF-8 Plain Text
Заголовок : Sub
Язык : Ukrainian

Текст #3
Идентификатор : 7
Формат : UTF-8
Идентификатор кодека : S_TEXT/UTF8
Идентификатор кодека/Информация : UTF-8 Plain Text
Заголовок : Sub
Язык : English

Меню
00:00:00.000 : en:00:00:00.000
00:06:24.125 : en:00:06:24.125
00:13:00.375 : en:00:13:00.375
00:21:25.458 : en:00:21:25.458
00:27:55.583 : en:00:27:55.583
00:34:05.750 : en:00:34:05.750
00:40:16.542 : en:00:40:16.542
00:48:48.250 : en:00:48:48.250
00:54:26.458 : en:00:54:26.458
00:59:38.208 : en:00:59:38.208
01:08:11.083 : en:01:08:11.083
01:15:53.083 : en:01:15:53.083

Свернуть

Скриншоты
ИзображениеИзображениеИзображениеИзображение
Свернуть
Не в сети
Профиль  
Начать новую темуОтветить на тему  [ 1 сообщение ] 
Вы не можете начинать темы
Вы не можете отвечать на сообщения
Вы не можете редактировать свои сообщения
Вы не можете удалять свои сообщения