Правила форума

  • В этом разделе создание новых тем Запрещено.
  • Для создания новых тем пользуйтесь Корневым разделом DVD и HD фильмы.
Начать новую темуОтветить на тему  [ Сообщений: 9 ] 
Торрент файл
Размер: 13.56 GB • Зарегистрирован: 5 лет 8 месяцев • Статус: Проверено
Скачан: 600 раз • Желающих скачать: 0 • Поблагодарили: 73 раза
 Раздают: 2  |  0 KB/s  ]   Качают: 0  |  0 KB/s  ] 
Сообщения
 Добавлено: 2011-03-16 00:59
Аватара пользователя
Стаж: 8 лет
Возраст: 23
Сообщений: 2472
Спасибок: 27961
Лайков: 2
Три дня на побег / The Next Three Days


«Все ради неё»



Изображение
Год выпуска: 2010
Страна: Изображение США, Lionsgate / Fidelite Films / Hwy61
Жанр: триллер, драма, мелодрама, криминал
Продолжительность:
02:13:08

Перевод: Профессиональный (полное дублирование) [лицензия]

Режиссер: Пол Хаггис
Сценарий: Пол Хаггис, Фред Кавайе, Гийом Леман
Продюсер: Оливье Делбоск, Пол Хаггис, Марк Миссонье, Майкл Нозик, Эжени Грандваль
Оператор: Стефан Фонтен
Композитор: Дэнни Элфман, Альберто Иглесиас

В ролях:
Рассел Кроу (John Brennan), Элизабет Бэнкс (Lara Brennan), Майкл Бьюи (Mick Brennan), Моран Атиас (Erit), Реми Нозик (Jenna), Тоби Грин (Three Year Old Luke), Тайлер Грин (Three Year Old Luke), Джейсон Бех (Detective Quinn), Аиша Хиндс (Detective Collero), Ти Кигэн Симпкинс (Luke), Вероника Браун (Female Guard #1), Оливия Уайлд (Nicole)
Дублёры: Денис Беспалый (John Brennan) (John Brennan), Василий Дахненко (Mick Brennan; Detective Quinn) (Mick Brennan; Detective Quinn), Татьяна Шитова (Erit) (Erit), Инна Королёва (Detective Collero) (Detective Collero), Петр Тобилевич (Meyer Fisk) (Meyer Fisk), Нина Тобилевич (Grace Brennan) (Grace Brennan), Александр Новиков (George Brennan) (George Brennan), Владимир Антоник (Damon Pennington) (Damon Pennington), Дмитрий Курта (David) (David), Михаил Георгиу (Lieutenant Nabulsi) (Lieutenant Nabulsi), Константин Карасик (Sergeant Harris) (Sergeant Harris), Наталья Грачева (Phone Operator) (Phone Operator)

Описание: Жизнь Джона казалась идеальной, пока его красавицу жену не арестовали по подозрению в убийстве. Пока Лара сидит в тюрьме, Джон один воспитывает сына и пытается всеми способами доказать ее невиновность.
Но, когда законные способы освободить любимую исчерпаны, единственное, что ему остается - разработать изощренный план побега. Джон готов рискнуть всем ради нее… Но что если она действительно виновна?


Изображение: 7.610 (4 316)
Изображение: 7.40 (12 412)

MPAA: Изображение - Детям до 13 лет просмотр не желателен

Доп. Информация

Бюджет: $30 000 000
Сборы в США: $21 148 651
Сборы в России: $3 087 364
Сборы в мире: $58 148 651
Мировая премьера: 9 ноября 2010
Изображение Релиз на DVD: 15 марта 2011, «West Video»
Изображение Релиз на Blu-ray: 15 марта 2011, «West Video»

Свернуть

Релиз группы: Изображение

Качество: BDRip 1080p R5

Формат: MKV
Видео: AVC; 1920x816 (2.35:1); 11.9 mb/s; 23,976 fps; 0,370 bpp
Аудио: Russian: DTS, 755 kb/s (6 ch) / English: DTS, 1510 kb/s (6 ch) / Ukrainian: AC3, 384 kb/s (6 ch)
Субтитры: Russian, Russian [voronine], English, Ukrainian
Размер: 13.56 GB
Дополнительно: Сохранены оригинальные чаптеры как на Blu-ray.
Изображение


BDInfo

Полное имя : JurganT: The.Next.Three.Days.2010.D.BDRip.1080p.mkv
Формат : Matroska
Размер файла : 13,6 Гбайт
Продолжительность : 2 ч. 13 м.
Общий поток : 14,6 Мбит/сек
Название фильма : Три дня на побег / The Next Three Days (2010) .....:::UNIONGANG:::.....
Дата кодирования : UTC 2011-03-15 19:13:28
Программа кодирования : mkvmerge v4.6.0 ('Still Crazy After All These Years') сборка от Mar 10 2011 02:50:32
Библиотека кодирования : libebml v1.2.0 + libmatroska v1.1.0

Видео
Идентификатор : 1
Формат : AVC
Формат/Информация : Advanced Video Codec
Профиль формата : High@L4.1
Параметр CABAC формата : Да
Параметр ReFrames формата : 5 кадры
Идентификатор кодека : V_MPEG4/ISO/AVC
Продолжительность : 2 ч. 13 м.
Битрейт : 11,9 Мбит/сек
Ширина : 1920 пикс.
Высота : 816 пикс.
Соотношение сторон : 2,35:1
Частота кадров : 23,976 кадр/сек
Цветовое пространство : YUV
Подвыборка цветности : 4:2:0
Битовая глубина : 8 бит
Тип развёртки : Прогрессивная
Бит/(Пиксели*Кадры) : 0.318
Размер потока : 10,8 Гбайт (80%)
Заголовок : The.Next.Three.Days.2010.D.BDRip.1080p.[CHD]
Библиотека кодирования : x264 core 107 r1766 f9f0035
Настройки программы : cabac=1 / ref=5 / deblock=1:-3:-3 / analyse=0x3:0x113 / me=umh / subme=10 / psy=1 / psy_rd=1.10:0.15 / mixed_ref=1 / me_range=48 / chroma_me=1 / trellis=2 / 8x8dct=1 / cqm=2 / deadzone=21,11 / fast_pskip=0 / chroma_qp_offset=-2 / threads=12 / sliced_threads=0 / nr=0 / decimate=1 / interlaced=0 / constrained_intra=0 / bframes=6 / b_pyramid=2 / b_adapt=2 / b_bias=0 / direct=3 / weightb=1 / open_gop=0 / weightp=2 / keyint=250 / keyint_min=23 / scenecut=40 / intra_refresh=0 / rc_lookahead=50 / rc=2pass / mbtree=1 / bitrate=11929 / ratetol=1.0 / qcomp=0.70 / qpmin=10 / qpmax=51 / qpstep=4 / cplxblur=20.0 / qblur=0.5 / vbv_maxrate=40000 / vbv_bufsize=30000 / ip_ratio=1.40 / aq=1:0.90 / nal_hrd=none
Язык : English

Аудио #1
Идентификатор : 2
Формат : DTS
Формат/Информация : Digital Theater Systems
Идентификатор кодека : A_DTS
Продолжительность : 2 ч. 13 м.
Вид битрейта : Постоянный
Битрейт : 755 Кбит/сек
Канал(ы) : 6 канала(ов)
Расположение каналов : Front: L C R, Side: L R, LFE
Частота : 48,0 КГц
Битовая глубина : 24 бит
Метод сжатия : С потерями
Размер потока : 719 Мбайт (5%)
Заголовок : DTS 5.1 @ 755 kb/s [Russian DUB]
Язык : Russian

Аудио #2
Идентификатор : 3
Формат : DTS
Формат/Информация : Digital Theater Systems
Идентификатор кодека : A_DTS
Продолжительность : 2 ч. 13 м.
Вид битрейта : Постоянный
Битрейт : 1510 Кбит/сек
Канал(ы) : 6 канала(ов)
Расположение каналов : Front: L C R, Side: L R, LFE
Частота : 48,0 КГц
Битовая глубина : 24 бит
Метод сжатия : С потерями
Размер потока : 1,40 Гбайт (10%)
Заголовок : DTS 5.1 @ 1510 kb/s [English]
Язык : English

Аудио #3
Идентификатор : 4
Формат : AC-3
Формат/Информация : Audio Coding 3
Расширение режима : CM (complete main)
Идентификатор кодека : A_AC3
Продолжительность : 2 ч. 13 м.
Вид битрейта : Постоянный
Битрейт : 384 Кбит/сек
Канал(ы) : 6 канала(ов)
Расположение каналов : Front: L C R, Side: L R, LFE
Частота : 48,0 КГц
Битовая глубина : 16 бит
Метод сжатия : С потерями
Размер потока : 366 Мбайт (3%)
Заголовок : AC3 5.1 @ 384 kb/s [Ukrainian DUB]
Язык : Ukrainian

Текст #1
Идентификатор : 5
Формат : UTF-8
Идентификатор кодека : S_TEXT/UTF8
Идентификатор кодека/Информация : UTF-8 Plain Text
Заголовок : Russian SUB
Язык : Russian

Текст #2
Идентификатор : 6
Формат : UTF-8
Идентификатор кодека : S_TEXT/UTF8
Идентификатор кодека/Информация : UTF-8 Plain Text
Заголовок : Russian SUB [voronine]
Язык : Russian

Текст #3
Идентификатор : 7
Формат : UTF-8
Идентификатор кодека : S_TEXT/UTF8
Идентификатор кодека/Информация : UTF-8 Plain Text
Заголовок : English SUB
Язык : English

Текст #4
Идентификатор : 8
Формат : UTF-8
Идентификатор кодека : S_TEXT/UTF8
Идентификатор кодека/Информация : UTF-8 Plain Text
Заголовок : Ukrainian SUB
Язык : Ukrainian

Меню
00:00:00.000 : en:00:00:00.000
00:13:34.439 : en:00:13:34.439
00:24:08.572 : en:00:24:08.572
00:34:31.361 : en:00:34:31.361
00:39:52.348 : en:00:39:52.348
00:44:26.581 : en:00:44:26.581
00:53:59.862 : en:00:53:59.862
00:57:53.804 : en:00:57:53.804
01:03:46.948 : en:01:03:46.948
01:07:22.372 : en:01:07:22.372
01:19:12.164 : en:01:19:12.164
01:28:39.523 : en:01:28:39.523
01:34:29.747 : en:01:34:29.747
01:45:59.895 : en:01:45:59.895
01:51:51.663 : en:01:51:51.663
01:58:58.256 : en:01:58:58.256
Свернуть
Скриншоты

Изображение
Изображение
Изображение
Свернуть

_________________
Изображение

Изображение


Последний раз редактировалось ShallDen 2011-03-16 19:26, всего редактировалось 1 раз.
Не в сети
Профиль  
 Добавлено: 2011-03-16 16:31 (спустя 15 часов)
Инквизитор
Аватара пользователя
Стаж: 8 лет 8 месяцев
Сообщений: 3753
Спасибок: 28360
Лайков: 9

ShallDen:

Продолжительность: 01:48:07
время указано неверно
Не в сети
Профиль  
 Добавлено: 2011-03-16 19:27 (спустя 2 часа 55 минут)
Аватара пользователя
Стаж: 8 лет
Возраст: 23
Сообщений: 2472
Спасибок: 27961
Лайков: 2
Биг согласен :)
_________________
Изображение

Изображение
Не в сети
Профиль  
 Добавлено: 2011-03-17 22:17 (спустя 1 день 2 часа)
Sony Ericsson
Аватара пользователя
Стаж: 8 лет 1 месяц
Сообщений: 560
Спасибок: 496
от это кино...от это я понимаю! всем советую! рассэл кроу как всегда неподрожаем! все фильмы с ним просто отличные!

Добавлено спустя 21 секунда:
ЗЫ: спасибу тыкнул
_________________
HTC Sensation
Не в сети
Профиль  
 Добавлено: 2011-03-20 15:06 (спустя 2 дня 16 часов)
Аватара пользователя
Стаж: 7 лет 10 месяцев
Сообщений: 35
Спасибок: 28
класс всем качать на 1000% прикольный
Не в сети
Профиль  
 Добавлено: 2011-05-04 09:36 (спустя 1 месяц 14 дней)
Аватара пользователя
Стаж: 8 лет 11 месяцев
Сообщений: 2004
Спасибок: 2289
Фильм просто оооооооочень хороший...даже добавить нечего! всё отлично сделанно, и не смотря на длину фильма, смотрится на одном дыхании... 10 из 10
Не в сети
Профиль  
 Добавлено: 2012-04-01 18:22 (спустя 10 месяцев)
Стаж: 9 лет
Сообщений: 20
Спасибок: 198
Это просто восторг! :ya_hoo_oo: :bra_vo:
Не в сети
Профиль  
 Добавлено: 2012-07-13 15:28 (спустя 3 месяца 11 дней)
Стаж: 5 лет
Сообщений: 9
:co_ol:
Не в сети
Профиль  
 Добавлено: 2013-08-01 22:21 (спустя 1 год)
Аватара пользователя
Стаж: 8 лет 6 месяцев
Сообщений: 9
Спасибок: 88
встаньте на раздачу, пожайлуста :)
Не в сети
Профиль  
Начать новую темуОтветить на тему  [ Сообщений: 9 ] 
Вы не можете начинать темы
Вы не можете отвечать на сообщения
Вы не можете редактировать свои сообщения
Вы не можете удалять свои сообщения