Правила форума

  • В этом разделе создание новых тем Запрещено.
  • Для создания новых тем пользуйтесь Корневым разделом DVD и HD фильмы.
Начать новую темуОтветить на тему  [ Сообщений: 6 ] 
Торрент файл
Размер: 9.15 GB • Зарегистрирован: 3 года 10 месяцев • Статус: Проверено
Скачан: 63 раза • Желающих скачать: 0 • Поблагодарили: 15 раз
 Раздают: 2  |  0 KB/s  ]   Качают: 0  |  0 KB/s  ] 
Сообщения
 Добавлено: 2013-01-26 17:52
Аватара пользователя
Стаж: 6 лет 1 месяц
Сообщений: 19
Спасибок: 285
Три идиота / 3 Idiots

Изображение


Год выпуска: 2009
Страна: Индия
Жанр: Драма, мелодрама, комедия
Продолжительность: 02:51:07
Перевод: Профессиональный (многоголосый) [BBC Saint Petersburg]

Режиссёр: Раджкумар Хирани
В ролях: Аамир Кхан, Шарман Джоши, Оми Вайдья, Мона Сингх, Али Фазал, Рахул Кумар, Боман Ирани, Карина Капур, Мадхаван
Описание: Двое друзей отправляются на поиски пропавшего приятеля. В этом путешествии им предстоит постоянно ввязываться в уже давно забытые споры, расстроить чужую свадьбу и побывать на похоронах. Их дорога проходит через опасные места. И тут начинается еще одно не совсем обычное путешествие друзей дорогами их памяти.

Они вспоминают своего приятеля, неудержимого и свободомыслящего Ранчо, который каким-то удивительным образом ворвался в их жизнь и все в ней изменил. Они вспоминают те времена, когда все они жили в студенческом общежитии. Вспоминают о том, как зарождалась любовь Ранчо к бойкой девушке Пиа и о конфликте Ранчо с его наставником, настоящим тираном Виру Сахастрабудхе. И вот однажды Ранчо вдруг исчезает… Кем он был на самом деле? Откуда он родом? Почему исчез?
Изображение
Рейтинг MPAA: Рейтинг PG-13 (Дети до 13 лет допускаются на фильм только с родителями)
Мировая премьера: 23 декабря 2009

Качество: BDRip, 720p
Формат: MKV
Видео: MPEG-4 AVC, 5500 Kbps, 24.000 fps, 0.329 bit/pixel, 1280x544 (2.35:1)
Аудио №1: DTS 6 ch, 48kHz, 16bit, 1 510 kbps Russian
Аудио №2: AC3 6 ch, 48kHz, 16bit, 640 kbps English
Mediainfo
Общее
Уникальный идентификатор: 185498400567988534057299936818491973793 (0x8B8DB143069BA701A74A75B85C4A60A1)
Полное имя: K:\Видео\3 Idiots 2009.BDRip.720p.mkv
Формат: Matroska
Версия формата: Version 2
Размер файла: 9,15 Гбайт
Продолжительность: 2 ч. 51 м.
Общий поток: 7652 Кбит/сек
Название фильма: 3 Идиота [2009, BDRip/720p] || ZUNE@HQFans
Дата кодирования: UTC 2011-07-19 06:37:18
Программа кодирования: mkvmerge v4.0.0 ('The Stars were mine') сборка от Jun 6 2010 16:18:42
Библиотека кодирования: libebml v1.0.0 + libmatroska v1.0.0
Attachment: Yes

Видео
Идентификатор: 1
Формат: AVC
Формат/Информация: Advanced Video Codec
Профиль формата: High@L4.1
Параметр CABAC формата: Да
Параметр ReFrames формата: 11 кадров
Идентификатор кодека: V_MPEG4/ISO/AVC
Продолжительность: 2 ч. 51 м.
Битрейт: 5500 Кбит/сек
Ширина: 1280 пикселей
Высота: 544 пикселя
Соотношение сторон: 2,35:1
Режим частоты кадров: Постоянный
Частота кадров: 24,000 кадра/сек
Цветовое пространство: YUV
Субдискретизация насыщенности: 4:2:0
Битовая глубина: 8 бит
Тип развёртки: Прогрессивная
Бит/(Пиксели*Кадры): 0.329
Размер потока: 6,40 Гбайт (70%)
Заголовок: 3 Идиота [2009, BDRip/720p] || ZUNE@HQFans
Библиотека кодирования: x264 core 116 r2019 9cc407d
Настройки программы: cabac=1 / ref=11 / deblock=1:-3:-3 / analyse=0x3:0x113 / me=umh / subme=10 / psy=1 / psy_rd=1.00:0.10 / mixed_ref=1 / me_range=64 / chroma_me=1 / trellis=2 / 8x8dct=1 / cqm=0 / deadzone=21,11 / fast_pskip=0 / chroma_qp_offset=-3 / threads=12 / sliced_threads=0 / nr=0 / decimate=0 / interlaced=0 / bluray_compat=0 / constrained_intra=0 / bframes=8 / b_pyramid=2 / b_adapt=2 / b_bias=0 / direct=3 / weightb=1 / open_gop=0 / weightp=2 / keyint=250 / keyint_min=23 / scenecut=40 / intra_refresh=0 / rc_lookahead=40 / rc=2pass / mbtree=0 / bitrate=5500 / ratetol=1.0 / qcomp=0.60 / qpmin=0 / qpmax=69 / qpstep=4 / cplxblur=20.0 / qblur=0.5 / vbv_maxrate=40000 / vbv_bufsize=30000 / nal_hrd=none / ip_ratio=1.40 / pb_ratio=1.30 / aq=1:0.80
Язык: English
Default: Да
Forced: Да
Основные цвета: BT.709
Характеристики трансфера: BT.709
Коэффициенты матрицы: BT.709

Аудио #1
Идентификатор: 2
Формат: DTS
Формат/Информация: Digital Theater Systems
Режим: 16
Параметр Endianness формата: Big
Идентификатор кодека: A_DTS
Продолжительность: 2 ч. 51 м.
Вид битрейта: Постоянный
Битрейт: 1509 Кбит/сек
Каналы: 6 каналов
Расположение каналов: Front: L C R, Side: L R, LFE
Частота: 48,0 КГц
Битовая глубина: 16 бит
Метод сжатия: С потерями
Размер потока: 1,80 Гбайт (20%)
Заголовок: MVO {BBC Saint Petersburg} [DTS 5.1@1536kbps/16-bit]
Язык: Russian
Default: Да
Forced: Да

Аудио #2
Идентификатор: 3
Формат: AC-3
Формат/Информация: Audio Coding 3
Расширение режима: CM (complete main)
Параметр Endianness формата: Big
Идентификатор кодека: A_AC3
Продолжительность: 2 ч. 51 м.
Вид битрейта: Постоянный
Битрейт: 640 Кбит/сек
Каналы: 6 каналов
Расположение каналов: Front: L C R, Side: L R, LFE
Частота: 48,0 КГц
Битовая глубина: 16 бит
Метод сжатия: С потерями
Размер потока: 783 Мбайт (8%)
Заголовок: Original [AC3 5.1@640kbps]
Язык: English
Default: Нет
Forced: Нет

Текст #1
Идентификатор: 4
Формат: UTF-8
Идентификатор кодека: S_TEXT/UTF8
Идентификатор кодека/Информация: UTF-8 Plain Text
Заголовок: Full
Язык: Russian
Default: Нет
Forced: Нет

Текст #2
Идентификатор: 5
Формат: UTF-8
Идентификатор кодека: S_TEXT/UTF8
Идентификатор кодека/Информация: UTF-8 Plain Text
Заголовок: HQFans
Default: Да
Forced: Да

Меню
00:00:00.000: en:Chapter 1
00:01:07.375: en:Chapter 2
00:08:23.042: en:Chapter 3
00:13:24.417: en:Chapter 4
00:18:07.667: en:Chapter 5
00:23:13.000: en:Chapter 6
00:28:49.250: en:Chapter 7
00:30:02.208: en:Chapter 8
00:31:29.042: en:Chapter 9
00:37:09.250: en:Chapter 10
00:44:34.000: en:Chapter 11
00:59:55.333: en:Chapter 12
01:06:27.500: en:Chapter 13
01:14:12.083: en:Chapter 14
01:20:47.125: en:Chapter 15
01:25:03.417: en:Chapter 16
01:28:24.833: en:Chapter 17
01:36:50.833: en:Chapter 18
01:42:58.417: en:Chapter 19
01:47:41.042: en:Chapter 20
01:52:03.000: en:Chapter 21
01:58:04.708: en:Chapter 22
02:09:01.542: en:Chapter 23
02:11:40.667: en:Chapter 24
02:18:18.625: en:Chapter 25
02:24:14.333: en:Chapter 26
02:37:46.042: en:Chapter 27
Свернуть
"Знаете ли Вы, что..."
Фильм создан по мотивам романа «Five Point Someone» индийского писателя Четан Бхагат (Chetan Bhagat).

В фильме используются реальные изобретения малоизвестных жителей Индии: Ремя Хосе, студент из штата Керала, который изобрел упражнение-велосипед/стиральную машину; Мохаммад Идрис, парихмахер из Мирут, который изобрел велосипед-питание; Джахангир художник, который изобрел самокатную мукомольную мельницу.
Свернуть
Скриншоты

Изображение

Изображение

Изображение

Изображение

Изображение

Изображение

Изображение

Изображение

Изображение

Изображение


Свернуть


Последний раз редактировалось stronger.x 2013-01-26 18:21, всего редактировалось 1 раз.
Не в сети
Профиль  
 Добавлено: 2013-01-26 18:00 (спустя 7 минут)
Модератор
Аватара пользователя
Стаж: 8 лет 11 месяцев
Сообщений: 516
Спасибок: 26888
Лайков: 1
Для HD и HQRip-ов необходимы скриншоты в формате PNG, для остальных форматов PNG так же рекомендуется.
Переделайте скриншоты пожалуйста.
Не в сети
Профиль  
 Добавлено: 2013-01-26 18:25 (спустя 25 минут)
Аватара пользователя
Стаж: 6 лет 1 месяц
Сообщений: 19
Спасибок: 285

-=Elis=-:

Для HD и HQRip-ов необходимы скриншоты в формате PNG, для остальных форматов PNG так же рекомендуется.
Переделайте скриншоты пожалуйста.
Готово,поменял формат скриншотов на .png
Спасибо за золото! :)
_________________
Изображение
Не в сети
Профиль  
 Добавлено: 2014-01-12 10:22 (спустя 11 месяцев)
Аватара пользователя
Стаж: 6 лет 11 месяцев
Сообщений: 25
!
Не в сети
Профиль  
 Добавлено: 2014-01-16 18:45 (спустя 4 дня)
Аватара пользователя
Стаж: 3 года 11 месяцев
Сообщений: 82
Лайков: 6
[flash=]СКОРОСТИ !!![/flash]

Добавлено спустя 51 секунда:
Помогу раздать!
Не в сети
Профиль  
 Добавлено: 2015-03-13 10:10 (спустя 1 год 1 месяц)
Стаж: 3 года
Сообщений: 1
Ребя, дайте пожалуйста скачать фильмец.
Не в сети
Профиль  
Начать новую темуОтветить на тему  [ Сообщений: 6 ] 
Вы не можете начинать темы
Вы не можете отвечать на сообщения
Вы не можете редактировать свои сообщения
Вы не можете удалять свои сообщения