Правила форума

  • В этом разделе создание новых тем Запрещено.
  • Для создания новых тем пользуйтесь Корневым разделом DVD и HD фильмы.
Начать новую темуОтветить на тему  [ Сообщений: 3 ] 
Торрент файл
Размер: 10.46 GB • Зарегистрирован: 5 лет 2 месяца • Статус: Проверено
Скачан: 99 раз • Желающих скачать: 0 • Поблагодарили: 22 раза
 Раздают: 0  |  0 KB/s  ]   Качают: 0  |  0 KB/s  ] 
 Полного источника не было 1 год 10 месяцев 
Сообщения
 Добавлено: 2011-09-16 16:44
Top-releaser
Аватара пользователя
Стаж: 8 лет 9 месяцев
Сообщений: 479
Спасибок: 20188
Лайков: 16
Три икса

Изображение

«Суперагент Третьего Тысячелетия.»

Изображение


Год выпуска: 2002
Страна: Изображение США
Жанр: Боевик, криминал, приключения
Продолжительность: 02:04:08
Перевод: Профессиональный (полное дублирование), Оригинал
Субтитры: Русские, английские, греческие, финские, польские, испанские, шведские


Режиссёр: Роб Коэн / Rob Cohen

В ролях: Вин Дизель, Азия Ардженто, Мартон Чокаш, Сэмюэл Л. Джексон, Майкл Руф, Том Эверетт, Дэнни Трехо, Томас Йен Гриффит, Ив, Лейла Арчери, Уильям Хоуп, Тед Мэйнард

Описание: Ксандер Кэйдж — спортсмен-экстремал. Этот человек не только выполняет уникальные смертельные трюки, но еще и записывает их на видео, размещая записи на одном из подпольных сайтов. Этот жестокий парень может сделать, то, что не в силах выполнить другие люди. Именно поэтому он привлекает к себе внимание одного из агентов Управления национальной безопасности.

Агент Гиббонс вербует Кэйджа. Оснащенный самой современной шпионской техникой и оружием, Кэйдж должен просочится в русские криминальные круги, находящиеся в Праге. Ничто не может помешать этому шпиону нового поколения ХХХ выполнить свою миссию, и никто не способен отвлечь его от задания. Никто, кроме таинственной девушки Елены…


Качество: BDRip 1080p
Формат: MKV

Видео: AVC, 1920 x 800 (2.400) at 23.976 fps

Аудио 1: AC3, 48 kHz, 6ch, 448 Kбит/с (Дубляж)
Аудио 2: DTS, 48 kHz, 6ch, 1536 Kбит/с (Оригинал)
Раздача: Изображение

Изображение
MediaInfo

Общее
Уникальный идентификатор : 253107057023955067477850230199146538121 (0xBE6AA561F2A94234AE11C07B61A46489)
Полное имя : C:\Users\Домашний\Desktop\Tri iksa.2002.BDRip.1080p[nntt].mkv
Формат : Matroska
Размер файла : 10,5 Гбайт
Продолжительность : 2 ч. 4 м.
Общий поток : 12,1 Мбит/сек
Название фильма : -=HANSMER=-
Дата кодирования : UTC 2007-12-28 17:11:02
Программа кодирования : mkvmerge v2.0.2 ('You're My Flame') built on Aug 15 2007 20:05:20
Библиотека кодирования : libebml v0.7.7 + libmatroska v0.8.1

Видео
Идентификатор : 1
Формат : AVC
Формат/Информация : Advanced Video Codec
Профиль формата : High@L5.1
Параметр CABAC формата : Да
Параметр ReFrames формата : 9 кадры
Идентификатор кодека : V_MPEG4/ISO/AVC
Продолжительность : 2 ч. 4 м.
Битрейт : 10,1 Мбит/сек
Ширина : 1920 пикс.
Высота : 800 пикс.
Соотношение сторон : 2,40:1
Частота кадров : 23,976 кадр/сек
Цветовое пространство : YUV
Подвыборка цветности : 4:2:0
Битовая глубина : 8 бит
Тип развёртки : Прогрессивная
Бит/(Пиксели*Кадры) : 0.274
Размер потока : 8,55 Гбайт (82%)
Заголовок : xXx.BDRip.1080p.x264
Библиотека кодирования : x264 core 57 svn-699C
Настройки программы : cabac=1 / ref=6 / deblock=1:-3:-3 / analyse=0x3:0x133 / me=umh / fpel_cmp=sad / subme=7 / me-prepass=0 / brdo=1 / mixed_ref=1 / me_range=24 / chroma_me=1 / trellis=2 / 8x8dct=1 / cqm=2 / deadzone=21,11 / chroma_qp_offset=0 / threads=6 / nr=0 / decimate=0 / mbaff=0 / bframes=4 / b_pyramid=1 / b_adapt=1 / b_bias=0 / direct=3 / wpredb=1 / bime=1 / keyint=250 / keyint_min=25 / scenecut=40(pre) / rc=2pass / bitrate=10100 / ratetol=1.0 / rceq='blurCplx^(1-qComp)' / qcomp=0.60 / qpmin=10 / qpmax=51 / qpstep=4 / cplxblur=20.0 / qblur=0.5 / ip_ratio=1.40 / pb_ratio=1.30
Язык : English

Аудио #1
Идентификатор : 2
Формат : AC-3
Формат/Информация : Audio Coding 3
Расширение режима : CM (complete main)
Идентификатор кодека : A_AC3
Продолжительность : 2 ч. 4 м.
Вид битрейта : Постоянный
Битрейт : 448 Кбит/сек
Канал(ы) : 6 канала(ов)
Расположение каналов : Front: L C R, Side: L R, LFE
Частота : 48,0 КГц
Битовая глубина : 16 бит
Метод сжатия : С потерями
Размер потока : 398 Мбайт (4%)
Заголовок : AC3, 6ch 448 kbps
Язык : Russian

Аудио #2
Идентификатор : 3
Формат : DTS
Формат/Информация : Digital Theater Systems
Идентификатор кодека : A_DTS
Продолжительность : 2 ч. 4 м.
Вид битрейта : Постоянный
Битрейт : 1510 Кбит/сек
Канал(ы) : 6 канала(ов)
Расположение каналов : Front: L C R, Side: L R, LFE
Частота : 48,0 КГц
Битовая глубина : 24 бит
Метод сжатия : С потерями
Размер потока : 1,31 Гбайт (13%)
Заголовок : DTS 5.1, 1536 kbps
Язык : English

Текст #1
Идентификатор : 4
Формат : UTF-8
Идентификатор кодека : S_TEXT/UTF8
Идентификатор кодека/Информация : UTF-8 Plain Text
Заголовок : English
Язык : English

Текст #2
Идентификатор : 5
Формат : UTF-8
Идентификатор кодека : S_TEXT/UTF8
Идентификатор кодека/Информация : UTF-8 Plain Text
Заголовок : Czech
Язык : Czech

Текст #3
Идентификатор : 6
Формат : UTF-8
Идентификатор кодека : S_TEXT/UTF8
Идентификатор кодека/Информация : UTF-8 Plain Text
Заголовок : Finnish
Язык : Finnish

Текст #4
Идентификатор : 7
Формат : UTF-8
Идентификатор кодека : S_TEXT/UTF8
Идентификатор кодека/Информация : UTF-8 Plain Text
Заголовок : Greek
Язык : Greek

Текст #5
Идентификатор : 8
Формат : UTF-8
Идентификатор кодека : S_TEXT/UTF8
Идентификатор кодека/Информация : UTF-8 Plain Text
Заголовок : Spanish
Язык : Spanish

Текст #6
Идентификатор : 9
Формат : UTF-8
Идентификатор кодека : S_TEXT/UTF8
Идентификатор кодека/Информация : UTF-8 Plain Text
Заголовок : Swedish
Язык : Swedish

Свернуть
Скриншоты
Изображение
Изображение
Изображение
Изображение
Изображение
Изображение
Свернуть
_________________
Изображение
Изображение
Не в сети
Профиль  
 Добавлено: 2011-09-20 17:03 (спустя 4 дня)
Стаж: 6 лет 2 месяца
Возраст: 25
Сообщений: 11
дайте ж скорости то епрст
Не в сети
Профиль  
 Добавлено: 2013-07-27 19:32 (спустя 1 год 10 месяцев)
Аватара пользователя
Стаж: 7 лет 8 месяцев
Сообщений: 63
Спасибок: 183
Лайков: 5
а скорости то до сих пор нет :ny_tik:
Не в сети
Профиль  
Начать новую темуОтветить на тему  [ Сообщений: 3 ] 
Вы не можете начинать темы
Вы не можете отвечать на сообщения
Вы не можете редактировать свои сообщения
Вы не можете удалять свои сообщения