Правила форума

  • В этом разделе создание новых тем Запрещено.
  • Для создания новых тем пользуйтесь Корневым разделом DVD и HD фильмы.
Начать новую темуОтветить на тему  [ Сообщений: 3 ] 
Торрент файл
Размер: 7.04 GB • Зарегистрирован: 3 года 11 месяцев • Статус: Проверено
Скачан: 61 раз • Желающих скачать: 0 • Поблагодарили: 18 раз
 Раздают: 0  |  0 KB/s  ]   Качают: 0  |  0 KB/s  ] 
 Полного источника не было 2 месяца 16 дней 
Сообщения
 Добавлено: 2013-01-03 10:54
Top-releaser
Аватара пользователя
Стаж: 6 лет 7 месяцев
Сообщений: 2078
Спасибок: 3230
Лайков: 9
Изображение

Три икса
xXx


Год выпуска: 2002
Страна: США
Слоган: «Суперагент Третьего Тысячелетия.»
Жанр: боевик, триллер
Продолжительность: 02:04:08
Перевод: Профессиональный (полное дублирование)
Режиссер: Роб Коэн
Сценарий: Рич Уилкс
Продюсер: Нил Х. Мориц, Крейтон Беллингер, Джордж Закк, Дерек Дочи, Вин Дизель
Оператор: Дин Семлер
Композитор: Рэнди Эдельман
В ролях: Вин Дизель, Азия Ардженто, Мартон Чокаш, Сэмюэл Л. Джексон, Майкл Руф, Ричи Мюллер, Вернер Даен
Бюджет: $70 000 000
Сборы в США: $142 109 382
Сборы в России: $3 060 000
Сборы в мире: $277 448 382
Мировая премьера: 9 августа 2002
Релиз на Blu-ray: 11 декабря 2008, «Columbia/Sony»
Описание: Ксандер Кэйдж - спортсмен-экстремал. Этот человек не только выполняет уникальные смертельные трюки, но еще и записывает их на видео, размещая записи на одном из подпольных сайтов. Этот жестокий парень может сделать, то, что не в силах выполнить другие люди. Именно поэтому он привлекает к себе внимание одного из агентов Управления национальной безопасности.
Агент Гиббонс вербует Кэйджа. Оснащенный самой современной шпионской техникой и оружием, Кэйдж должен просочиться в русские криминальные круги, находящиеся в Праге. Ничто не может помешать этому шпиону нового поколения ХХХ выполнить свою миссию, и никто не способен отвлечь его от задания. Никто, кроме таинственной девушки Елены.

Раздача группы: Изображение

Изображение User Rating: 7.291 (30 195)
Изображение User Rating: 5.70 (92 677)
MPAA: PG-13 - Детям до 13 лет просмотр не желателен
Качество: BDRip, 720p
Формат: Matroska
Видео: AVC; 1280x532 (2.40:1); 5998 Kbps; 23,976 fps; 0,367 bit/pixel
Аудио №1: Russian; AC3; 448 Kbps; CBR; 6 ch
Аудио №2: English; DTS; 1509 Kbps; CBR; 6 ch; 24 bit

Субтитры: English

MediaInfo
Общее
Уникальный идентификатор : 242400741699026786446888629264302495862 (0xB65CAF485DF53730AC691C59CD3C5876)
Полное имя : Z:\WWW\TR-Downloads\xXx.720p[R.G.Daredevil].mkv
Формат : Matroska
Версия формата : Version 1
Размер файла : 7,04 Гбайт
Продолжительность : 2 ч. 4 м.
Общий поток : 8117 Кбит/сек
Дата кодирования : UTC 2007-12-03 17:47:39
Программа кодирования : mkvmerge v2.1.0 ('Another Place To Fall') built on Aug 19 2007 13:40:07
Библиотека кодирования : libebml v0.7.7 + libmatroska v0.8.1

Видео
Идентификатор : 1
Формат : AVC
Формат/Информация : Advanced Video Codec
Профиль формата : High@L5.1
Параметр CABAC формата : Да
Параметр ReFrames формата : 9 кадров
Идентификатор кодека : V_MPEG4/ISO/AVC
Продолжительность : 2 ч. 4 м.
Битрейт : 6155 Кбит/сек
Ширина : 1280 пикселей
Высота : 532 пикселя
Соотношение сторон : 2,40:1
Частота кадров : 23,976 кадра/сек
Цветовое пространство : YUV
Субдискретизация насыщенности : 4:2:0
Битовая глубина : 8 бит
Тип развёртки : Прогрессивная
Бит/(Пиксели*Кадры) : 0.377
Размер потока : 5,20 Гбайт (74%)
Заголовок : xXx
Библиотека кодирования : x264 core 57 svn-699C
Настройки программы : cabac=1 / ref=6 / deblock=1:-3:-3 / analyse=0x3:0x133 / me=umh / fpel_cmp=sad / subme=7 / me-prepass=0 / brdo=1 / mixed_ref=1 / me_range=24 / chroma_me=1 / trellis=2 / 8x8dct=1 / cqm=2 / deadzone=21,11 / chroma_qp_offset=0 / threads=6 / nr=0 / decimate=0 / mbaff=0 / bframes=4 / b_pyramid=1 / b_adapt=1 / b_bias=0 / direct=3 / wpredb=1 / bime=1 / keyint=250 / keyint_min=25 / scenecut=40(pre) / rc=2pass / bitrate=6155 / ratetol=1.0 / rceq='blurCplx^(1-qComp)' / qcomp=0.60 / qpmin=10 / qpmax=51 / qpstep=4 / cplxblur=20.0 / qblur=0.5 / ip_ratio=1.40 / pb_ratio=1.30
Язык : English
Default : Да
Forced : Нет

Аудио #1
Идентификатор : 2
Формат : AC-3
Формат/Информация : Audio Coding 3
Расширение режима : CM (complete main)
Параметр Endianness формата : Big
Идентификатор кодека : A_AC3
Продолжительность : 2 ч. 4 м.
Вид битрейта : Постоянный
Битрейт : 448 Кбит/сек
Каналы : 6 каналов
Расположение каналов : Front: L C R, Side: L R, LFE
Частота : 48,0 КГц
Битовая глубина : 16 бит
Метод сжатия : С потерями
Размер потока : 398 Мбайт (6%)
Язык : Russian
Default : Да
Forced : Нет

Аудио #2
Идентификатор : 3
Формат : DTS
Формат/Информация : Digital Theater Systems
Идентификатор кодека : A_DTS
Продолжительность : 2 ч. 4 м.
Вид битрейта : Постоянный
Битрейт : 1510 Кбит/сек
Каналы : 6 каналов
Расположение каналов : Front: L C R, Side: L R, LFE
Частота : 48,0 КГц
Битовая глубина : 24 бит
Метод сжатия : С потерями
Размер потока : 1,31 Гбайт (19%)
Заголовок : English DTS 5.1
Язык : English
Default : Нет
Forced : Нет

Текст
Идентификатор : 4
Формат : UTF-8
Идентификатор кодека : S_TEXT/UTF8
Идентификатор кодека/Информация : UTF-8 Plain Text
Заголовок : English
Язык : English
Default : Да
Forced : Нет
Свернуть
"Знаете ли Вы, что..."
  • Работа над фильмом была омрачена трагедией, когда каскадёр Гарри Коннор погиб во время съёмок одной из сцен, выступая дублёром Вин Дизеля. Опускаясь на тросе после прыжка с парашютом, он ударился об одну из опор пражского моста Palacky Bridge и смерть наступила практически мгновенно. Его гибель осталась запечатлённой на плёнку, и в память о погибшем каскадёре несколько перемонтированные кадры его последнего трюка вошли в финальную версию фильма.
Свернуть
Скриншоты

Изображение
Изображение
Изображение
Изображение
Изображение
Изображение
Свернуть
Не в сети
Профиль  
 Добавлено: 2013-01-03 13:15 (спустя 2 часа 21 минута)
Модератор
Аватара пользователя
Стаж: 6 лет 10 месяцев
Возраст: 33
Сообщений: 5908
Спасибок: 61255
Лайков: 3540
:co_ol:
_________________
ИзображениеИзображение Изображение
Изображение
Не в сети
Профиль  
 Добавлено: 2013-01-18 22:40 (спустя 15 дней)
Аватара пользователя
Стаж: 7 лет 7 месяцев
Сообщений: 533
Спасибок: 1623
Лайков: 3
ностальгия взяла!!!!ну раздайте пожалуйста :ny_tik:
Не в сети
Профиль  
Начать новую темуОтветить на тему  [ Сообщений: 3 ] 
Вы не можете начинать темы
Вы не можете отвечать на сообщения
Вы не можете редактировать свои сообщения
Вы не можете удалять свои сообщения