Правила форума

  • В этом разделе создание новых тем Запрещено.
  • Для создания новых тем пользуйтесь Корневым разделом DVD и HD фильмы.
Начать новую темуОтветить на тему  [ Сообщений: 2 ] 
Торрент файл
Размер: 27.6 GB • Зарегистрирован: 4 года 11 месяцев • Статус: Проверено
Скачан: 82 раза • Желающих скачать: 0 • Поблагодарили: 13 раз
 Раздают: 0  |  0 KB/s  ]   Качают: 0  |  0 KB/s  ] 
 Полного источника не было 1 год 8 месяцев 
Сообщения
 Добавлено: 2011-12-10 21:21
Top-releaser
Стаж: 7 лет 4 месяца
Возраст: 33
Сообщений: 409
Спасибок: 6402
Лайков: 6
Три метра над уровнем неба / Tres metros sobre el cielo

«Когда любовь уносит в облака...»

Изображение
Год выпуска: 2010
Страна: Испания
Жанр: драма, мелодрама
Продолжительность: 02:03:12
Перевод: Профессиональный (дублирование) лицензия

Режиссер: Фернандо Гонзалез Молина (Fernando Gonzalez Molina)
Сценарий: Рамон Салазар / Ramon Salazar, Федерико Моччиа / Federico Moccia
Продюсер: Даниэль Эсиха / Daniel Acija, Мерседес Гамеро / Mercedes Gamero, Алех Пина / Alex Pina, Франциско Рамос / Francisco Ramos, Хуан Карлос Каро / Juan Carlos Caro
Оператор: Дэниэл Аранио / Daniel Aranyo
Композитор: Manel Santisteban

В ролях: Марио Касас (H.), Мария Вальверде (Babi), Альваро Сервантес (Pollo), Марина Салас (Katina), Луис Фернандез (El Chino, (as Luis Fernandez)), Андреа Дуро (Mara), Нереа Камачо (Daniela), Диего Мартин (Alejandro), Кристина Плазас (Rafaela), Джорди Бош (Claudio), Джоан Кросас (Padre H.), Cristina Dilla (Madre H.)
Дублёры: Александр Гаврилин (H.), Александра Остроухова (Babi), Диомид Виноградов (Pollo), Вероника Саркисова (Katina), Лина Иванова (Daniela), Александр Рахленко (Alejandro), Дмитрий Курта (Gustavo)

Описание: История двух молодых людей, которые принадлежат к разным мирам. Баби - богатая девушка, которая отображает доброту и невинность. Аче - мятежный мальчик, импульсивный, бессознательный, склонный к риску и опасности. Это маловероятно, практически невозможно, но их встреча неизбежна, и в этом неистовом путешествии между ними возникает первая большая любовь.

Рейтинг
Kinopoisk.RU: 7.877 (9 595)
Imdb.com: 6.00 (1 245)

Качество: BD Remux 1080p
Формат: BDAV
Видео: AVC; 1920x1080 (16:9); 33760 Kbps; 23,976 fps; 0,679 bpp
Аудио 1: Spa; DTS-HD MA 5.1 (48 kHz / 1510 kbps / 16-bit)
Аудио 2: Rus; AC3; 384 Kbps; CBR; 6 ch
Субтитры: Russian (R5), English (BD)

Релиз: Изображение
Mediainfo
General
ID : 1 (0x1)
Complete name : D:\uTorrent\TRES_METROS_SOBRE_EL_CIELO_2010_BDREMUX_HDCLUB\BDMV\STREAM\00000.m2ts
Format : BDAV
Format/Info : Blu-ray Video
File size : 27.6 GiB
Duration : 2h 3mn
Overall bit rate mode : Variable
Overall bit rate : 32.1 Mbps
Maximum Overall bit rate : 35.5 Mbps
Video #4113
ID : 4113 (0x1011)
Menu ID : 1 (0x1)
Format : AVC
Format/Info : Advanced Video Codec
Format profile : High@L4.1
Format settings, CABAC : Yes
Format settings, ReFrames : 4 frames
Format settings, GOP : M=3, N=24
Codec ID : 27
Duration : 2h 2mn
Bit rate mode : Variable
Bit rate : 28.6 Mbps
Maximum bit rate : 35.0 Mbps
Width : 1 920 pixels
Height : 1 080 pixels
Display aspect ratio : 16:9
Frame rate : 24.000 fps
Standard : NTSC
Color space : YUV
Chroma subsampling : 4:2:0
Bit depth : 8 bits
Scan type : Progressive
Bits/(Pixel*Frame) : 0.575
Stream size : 24.6 GiB (89%)
Color primaries : BT.709-5, BT.1361, IEC 61966-2-4, SMPTE RP177
Transfer characteristics : BT.709-5, BT.1361
Matrix coefficients : BT.709-5, BT.1361, IEC 61966-2-4 709, SMPTE RP177
Audio #4352
ID : 4352 (0x1100)
Menu ID : 1 (0x1)
Format : AC-3
Format/Info : Audio Coding 3
Mode extension : CM (complete main)
Codec ID : 129
Duration : 2h 3mn
Bit rate mode : Constant
Bit rate : 384 Kbps
Channel(s) : 6 channels
Channel positions : Front: L C R, Side: L R, LFE
Sampling rate : 48.0 KHz
Bit depth : 16 bits
Compression mode : Lossy
Stream size : 338 MiB (1%)
Language : Russian
Audio #4353
ID : 4353 (0x1101)
Menu ID : 1 (0x1)
Format : DTS
Format/Info : Digital Theater Systems
Format profile : MA / Core
Muxing mode : Stream extension
Codec ID : 134
Duration : 2h 3mn
Bit rate mode : Variable
Bit rate : 1 771 Kbps / 1 510 Kbps
Channel(s) : 6 channels
Channel positions : Front: L C R, Side: L R, LFE
Sampling rate : 48.0 KHz
Bit depth : 16 bits
Compression mode : Lossless / Lossy
Language : Spanish
Text #4608
ID : 4608 (0x1200)
Menu ID : 1 (0x1)
Format : PGS
Codec ID : 144
Delay relative to video : 875ms
Language : Russian
Свернуть
Скриншоты
Изображение

Изображение

Изображение
Свернуть
 keyf нравится это.
Не в сети
Профиль  
 Добавлено: 2012-01-01 20:21 (спустя 21 день)
Аватара пользователя
Стаж: 8 лет 7 месяцев
Сообщений: 57
Спасибок: 2
Фильм великолепный 10/10, не ожидал, что так зацепит..
Не в сети
Профиль  
Начать новую темуОтветить на тему  [ Сообщений: 2 ] 
Вы не можете начинать темы
Вы не можете отвечать на сообщения
Вы не можете редактировать свои сообщения
Вы не можете удалять свои сообщения