Правила форума

  • В этом разделе создание новых тем Запрещено.
  • Для создания новых тем пользуйтесь Корневым разделом DVD и HD фильмы.
Начать новую темуОтветить на тему  [ Сообщений: 2 ] 
Торрент файл
Размер: 15.56 GB • Зарегистрирован: 4 года 4 месяца • Статус: Проверено
Скачан: 182 раза • Желающих скачать: 0 • Поблагодарили: 30 раз
 Раздают: 0  |  0 KB/s  ]   Качают: 0  |  0 KB/s  ] 
 Полного источника не было 13 дней 
Сообщения
 Добавлено: 2012-07-30 21:17
Модератор
Аватара пользователя
Стаж: 6 лет 10 месяцев
Возраст: 33
Сообщений: 5908
Спасибок: 61259
Лайков: 3540
Изображение

Три метра над уровнем неба / Tres metros sobre el cielo


Год выпуска: 2010
Страна: Испания
Слоган: «Когда любовь уносит в облака...»
Жанр: драма, мелодрама
Продолжительность: 02:03:12
Перевод: Профессиональный (полное дублирование) R5
Режиссер: Фернандо Гонзалез Молина
Сценарий: Рамон Салазар, Федерико Моччиа
Продюсер: Даниэль Эсиха, Мерседес Гамеро, Алех Пина, Франциско Рамос, Хуан Карлос Каро
Оператор: Дэниэл Аранио
Композитор: Манель Сантистебан
В ролях: Марио Касас, Мария Вальверде, Альваро Сервантес, Марина Салас, Луис Фернандез, Андреа Дуро, Нереа Камачо, Диего Мартин, Кристина Плазас, Джорди Бош, Джоан Кросас, Cristina Dilla
Сборы в России: $73 328
Описание: История двух молодых людей, которые принадлежат к разным мирам. Баби богатая девушка, которая отображает доброту и невинность. Аче - мятежный мальчик, импульсивный, бессознательный, склонный к риску и опасности. Это маловероятно, практически невозможно, но их встреча неизбежна, и в этом неистовом путешествии между ними возникает первая большая любовь.
Изображение
Мировая премьера: 3 декабря 2010
Релиз на DVD: 16 ноября 2011, «Кармен Видео»
Релиз на Blu-ray: 28 марта 2012, «Кармен Видео»
Раздача группы: Изображение
Качество: BDRip, 1080p
Формат: Matroska
Видео: AVC; 1920x818 (2.35:1); 15639 Kbps; 24 fps; 0,415 bit/pixel
Аудио №1: Russian; AC3; 384 Kbps; CBR; 6 ch (DUB)
Аудио №2: Russian; AC3; 192 Kbps; CBR; 2 ch (MVO)
Аудио №3: Spanish; DTS; 1509 Kbps; CBR; 6 ch; 16 bit Original Spa
Субтитры №1: Russian
Субтитры №2: Russian
Субтитры №3:


"Знаете ли Вы, что..."
  • «Три метра над уровнем неба» - экранизация романа итальянского писателя и режиссера Федерико Моччиа. В 2004 году свет увидела итальянская экранизация, а через шесть лет, в 2010 году была снята испанская версия. В книге и итальянском фильме действие происходит в Риме, главного героя зовут Стефано Манчини, его прозвище Степ. В испанском фильме действие происходит в Барселоне, имя главного героя - Хьюго (Уго) Оливера, а прозвище - Аче.
Свернуть
MediaInfo
Общее
Уникальный идентификатор : 194203954101470201459681712673506593518 (0x921A52307AD23149B2061CD7192A0AEE)
Полное имя : E:\01 Encod Video\Tri metra nad urovnem neba 2010 BDRip 1080p.mkv
Формат : Matroska
Версия формата : Version 2
Размер файла : 15,6 Гбайт
Продолжительность : 2 ч. 3 м.
Общий поток : 18,1 Мбит/сек
Дата кодирования : UTC 2011-12-30 21:46:39
Программа кодирования : mkvmerge v4.9.1 ('Ich will') сборка от Jul 11 2011 23:53:15
Библиотека кодирования : libebml v1.2.1 libmatroska v1.1.1

Видео
Идентификатор : 1
Формат : AVC
Формат/Информация : Advanced Video Codec
Профиль формата : High@L4.1
Параметр CABAC формата : Да
Параметр ReFrames формата : 5 кадров
Идентификатор кодека : V_MPEG4/ISO/AVC
Продолжительность : 2 ч. 3 м.
Битрейт : 15,6 Мбит/сек
Ширина : 1920 пикселей
Высота : 818 пикселей
Соотношение сторон : 2,35:1
Частота кадров : 24,000 кадра/сек
Цветовое пространство : YUV
Субдискретизация насыщенности : 4:2:0
Битовая глубина : 8 бит
Тип развёртки : Прогрессивная
Бит/(Пиксели*Кадры) : 0.415
Размер потока : 13,5 Гбайт (86%)
Заголовок : 1920х818 | 15.3 Mbps | 24.0 fps | 0.410 bit\pixel | High@L4.1 - Rip by LexxBlack
Библиотека кодирования : x264 core 116 r2044 392e762
Настройки программы : cabac=1 / ref=5 / deblock=1:-3:-3 / analyse=0x3:0x133 / me=umh / subme=11 / psy=1 / psy_rd=1.10:0.00 / mixed_ref=1 / me_range=32 / chroma_me=1 / trellis=2 / 8x8dct=1 / cqm=0 / deadzone=21,11 / fast_pskip=0 / chroma_qp_offset=-3 / threads=12 / sliced_threads=0 / nr=0 / decimate=1 / interlaced=0 / bluray_compat=0 / constrained_intra=0 / bframes=7 / b_pyramid=2 / b_adapt=2 / b_bias=0 / direct=3 / weightb=1 / open_gop=0 / weightp=2 / keyint=250 / keyint_min=24 / scenecut=40 / intra_refresh=0 / rc_lookahead=60 / rc=crf / mbtree=1 / crf=17.7 / qcomp=0.65 / qpmin=0 / qpmax=69 / qpstep=4 / vbv_maxrate=50000 / vbv_bufsize=62500 / crf_max=0.0 / nal_hrd=none / ip_ratio=1.40 / aq=1:1.00
Язык : Spanish

Аудио #1
Идентификатор : 2
Формат : AC-3
Формат/Информация : Audio Coding 3
Расширение режима : CM (complete main)
Идентификатор кодека : A_AC3
Продолжительность : 2 ч. 3 м.
Вид битрейта : Постоянный
Битрейт : 384 Кбит/сек
Каналы : 6 каналов
Расположение каналов : Front: L C R, Side: L R, LFE
Частота : 48,0 КГц
Битовая глубина : 16 бит
Метод сжатия : С потерями
Размер потока : 338 Мбайт (2%)
Заголовок : AC3 | 6 ch | 48 kHz | 384 kbps | 16 bit - DUB
Язык : Russian

Аудио #2
Идентификатор : 3
Формат : AC-3
Формат/Информация : Audio Coding 3
Расширение режима : CM (complete main)
Идентификатор кодека : A_AC3
Продолжительность : 2 ч. 3 м.
Вид битрейта : Постоянный
Битрейт : 192 Кбит/сек
Каналы : 2 канала
Расположение каналов : Front: L R
Частота : 48,0 КГц
Битовая глубина : 16 бит
Метод сжатия : С потерями
Размер потока : 169 Мбайт (1%)
Заголовок : AC3 | 2 ch | 48 kHz | 192 kbps | 16 bit - MVO
Язык : Russian

Аудио #3
Идентификатор : 4
Формат : DTS
Формат/Информация : Digital Theater Systems
Идентификатор кодека : A_DTS
Продолжительность : 2 ч. 3 м.
Вид битрейта : Постоянный
Битрейт : 1510 Кбит/сек
Каналы : 6 каналов
Расположение каналов : Front: L C R, Side: L R, LFE
Частота : 48,0 КГц
Битовая глубина : 16 бит
Метод сжатия : С потерями
Размер потока : 1,30 Гбайт (8%)
Заголовок : DTS | 6 ch | 48 Khz | 1510 kbps | 16 bit - Original
Язык : Spanish

Текст #1
Идентификатор : 5
Формат : UTF-8
Идентификатор кодека : S_TEXT/UTF8
Идентификатор кодека/Информация : UTF-8 Plain Text
Заголовок : SRT UTF-8
Язык : Russian

Текст #2
Идентификатор : 6
Формат : UTF-8
Идентификатор кодека : S_TEXT/UTF8
Идентификатор кодека/Информация : UTF-8 Plain Text
Заголовок : SRT UTF-8
Язык : Russian

Текст #3
Идентификатор : 7
Формат : UTF-8
Идентификатор кодека : S_TEXT/UTF8
Идентификатор кодека/Информация : UTF-8 Plain Text
Заголовок : SRT UTF-8
Язык : English

Меню
00:00:00.000 : es:chapter 01
00:15:57.708 : es:chapter 02
00:31:26.417 : es:chapter 03
00:45:44.625 : es:chapter 04
01:02:21.292 : es:chapter 05
01:17:26.917 : es:chapter 06
01:33:33.500 : es:chapter 07
01:48:54.750 : es:chapter 08

Свернуть

Скриншоты

Изображение
Изображение
Изображение
Изображение
Изображение
Изображение
Свернуть
Изображение
_________________
ИзображениеИзображение Изображение
Изображение
 tany1984 и di-ys1 нравится это.
Не в сети
Профиль  
 Добавлено: 2012-09-07 03:47 (спустя 1 месяц 7 дней)
Стаж: 7 лет 3 месяца
Сообщений: 4
жизненный!
Не в сети
Профиль  
Начать новую темуОтветить на тему  [ Сообщений: 2 ] 
Вы не можете начинать темы
Вы не можете отвечать на сообщения
Вы не можете редактировать свои сообщения
Вы не можете удалять свои сообщения