Правила форума

  • В этом разделе создание новых тем Запрещено.
  • Для создания новых тем пользуйтесь Корневым разделом DVD и HD фильмы.
Начать новую темуОтветить на тему  [ Сообщений: 4 ] 
Торрент файл
Размер: 11.02 GB • Зарегистрирован: 4 года 3 месяца • Статус: Проверено
Скачан: 145 раз • Желающих скачать: 0 • Поблагодарили: 21 раз
 Раздают: 0  |  0 KB/s  ]   Качают: 0  |  0 KB/s  ] 
 Полного источника не было 11 месяцев 
Сообщения
 Добавлено: 2012-09-02 18:29
Модератор
Аватара пользователя
Стаж: 6 лет 10 месяцев
Возраст: 33
Сообщений: 5908
Спасибок: 61259
Лайков: 3540
Изображение

Три метра над уровнем неба: Я тебя хочу
Tengo ganas de ti


Год выпуска: 2012
Страна: Испания
Жанр: драма, мелодрама
Продолжительность: 02:03:33
Перевод: Профессиональный (полное дублирование)
Режиссер: Фернандо Гонзалез Молина
Сценарий: Рамон Салазар, Федерико Моччиа
Продюсер: Мерседес Гамеро, Джозеп Аморос, Хуан Карлос Каро, Энеко Гутьеррез, Франциско Рамос
Оператор: Ксави Хименес
Композитор: Манель Сантистебан
В ролях: Марио Касас, Мария Вальверде, Клара Лаго, Андреа Дуро, Альваро Сервантес, Диего Мартин, Марина Салас, Нереа Камачо, Луис Фернандез, Ману Фульола, Антонио Веласкез, Карме Элиас
Сборы в России: $6 108 136
Сборы в мире: $17 020 666
Мировая премьера: 22 июня 2012
Релиз на DVD: 5 сентября 2012, «Кармен Видео», «ВС трейд»
Релиз на Blu-ray: 5 сентября 2012, «Кармен Видео»
Описание: Проведя два года в Лондоне, Аче возвращается домой, чтобы начать новую жизнь: устроиться на работу, завести новых друзей. Однако многое изменилось и встреча с Джин заставляет Аче почувствовать то, что он чувствовал только к Баби - своей первой большой и настоящей любви.

Изображение User Rating: 6.919 (14 842)
Изображение User Rating: 7.10 (1 249)
Раздача группы: Изображение
Изображение
Качество: BDRip, 1080p
Формат: Matroska
Видео: AVC; 1920x804 (2.35:1); 11756 Kbps; 23,976 fps; 0,318 bit/pixel
Аудио: Russian; DTS; 754 Kbps; CBR; 6 ch; 16 bit
Субтитры: Russian
mediainfo
General
Unique ID : 187130722630000407524228543835228425131 (0x8CC810F3FA1E7480BA15310743754BAB)
Complete name : D:\Tri.metra.nad.urovnem.neba.Ja.tebja.hochu.2012.x264.BDRip.1080p.fanatus.mkv
Format : Matroska
Format version : Version 2
File size : 11.0 GiB
Duration : 2h 3mn
Overall bit rate : 12.8 Mbps
Movie name : Tengo ganas de ti (2012) - fanatus
Encoded date : UTC 2012-09-01 17:03:55
Writing application : mkvmerge v3.4.0 ('Rapunzel') сборка от May 15 2010 09:38:20
Writing library : libebml v0.8.0 + libmatroska v0.9.0

Video
ID : 1
Format : AVC
Format/Info : Advanced Video Codec
Format profile : High@L4.1
Format settings, CABAC : Yes
Format settings, ReFrames : 5 frames
Codec ID : V_MPEG4/ISO/AVC
Duration : 2h 3mn
Bit rate : 12.0 Mbps
Width : 1 920 pixels
Height : 804 pixels
Display aspect ratio : 2.40:1
Frame rate : 23.976 fps
Color space : YUV
Chroma subsampling : 4:2:0
Bit depth : 8 bits
Scan type : Progressive
Bits/(Pixel*Frame) : 0.324
Stream size : 10.1 GiB (92%)
Title : Tengo ganas de ti (2012)
Writing library : x264 core 125 r2200 999b753
Encoding settings : cabac=1 / ref=5 / deblock=1:-3:-3 / analyse=0x3:0x133 / me=umh / subme=11 / psy=1 / psy_rd=1.12:0.02 / mixed_ref=1 / me_range=32 / chroma_me=1 / trellis=2 / 8x8dct=1 / cqm=0 / deadzone=21,11 / fast_pskip=0 / chroma_qp_offset=-3 / threads=16 / lookahead_threads=2 / sliced_threads=0 / nr=0 / decimate=0 / interlaced=0 / bluray_compat=0 / constrained_intra=0 / bframes=5 / b_pyramid=2 / b_adapt=2 / b_bias=0 / direct=3 / weightb=1 / open_gop=0 / weightp=2 / keyint=240 / keyint_min=23 / scenecut=40 / intra_refresh=0 / rc_lookahead=90 / rc=2pass / mbtree=1 / bitrate=12000 / ratetol=1.0 / qcomp=0.65 / qpmin=0 / qpmax=69 / qpstep=4 / cplxblur=20.0 / qblur=0.5 / ip_ratio=1.40 / aq=1:1.05
Language : Spanish
Default : Yes
Forced : No

Audio
ID : 2
Format : DTS
Format/Info : Digital Theater Systems
Codec ID : A_DTS
Duration : 2h 3mn
Bit rate mode : Constant
Bit rate : 755 Kbps
Channel(s) : 6 channels
Channel positions : Front: L C R, Side: L R, LFE
Sampling rate : 48.0 KHz
Bit depth : 16 bits
Compression mode : Lossy
Stream size : 667 MiB (6%)
Title : Dub
Language : Russian
Default : Yes
Forced : No

Text
ID : 3
Format : UTF-8
Codec ID : S_TEXT/UTF8
Codec ID/Info : UTF-8 Plain Text
Language : Russian
Default : No
Forced : No

Menu
00:00:00.000 : en:Chapter 01
00:06:59.377 : en:Chapter 02
00:15:55.913 : en:Chapter 03
00:23:47.259 : en:Chapter 04
00:32:58.810 : en:Chapter 05
00:39:14.643 : en:Chapter 06
00:49:04.066 : en:Chapter 07
00:57:55.972 : en:Chapter 08
01:07:45.811 : en:Chapter 09
01:15:44.915 : en:Chapter 10
01:24:13.381 : en:Chapter 11
01:30:18.496 : en:Chapter 12
01:41:28.582 : en:Chapter 13
01:47:33.363 : en:Chapter 14
01:54:00.750 : en:Chapter 15
02:00:19.253 : en:Chapter 16
02:03:33.739 : en:Chapter 17
Свернуть
"Знаете ли Вы, что..."
  • Оригинальное название фильма переводится как «Я хочу тебя» (Tengo ganas de ti).
Свернуть
Скриншоты

Изображение
Изображение
Изображение
Изображение
Изображение
Изображение
Свернуть
_________________
ИзображениеИзображение Изображение
Изображение
 tany1984 и di-ys1 нравится это.
Не в сети
Профиль  
 Добавлено: 2012-09-04 17:23 (спустя 1 день 22 часа)
Аватара пользователя
Стаж: 8 лет 9 месяцев
Сообщений: 1170
Спасибок: 1294
Лайков: 7
почему 1080р, если размер картинки 1920x804?
Не в сети
Профиль  
 Добавлено: 2012-09-05 16:15 (спустя 22 часа)
Стаж: 8 лет 2 месяца
Сообщений: 78
Спасибок: 161
я лучше еще раз зеленого слоника посмотрю, чем эту дурь для девочек
Не в сети
Профиль  
 Добавлено: 2012-09-08 23:05 (спустя 3 дня)
Console R.G.
Аватара пользователя
Стаж: 8 лет 3 месяца
Возраст: 22
Сообщений: 460
Спасибок: 2125
Лайков: 1
kolchin
я лучше свадебную вазу посмотрю :-D
Не в сети
Профиль  
Начать новую темуОтветить на тему  [ Сообщений: 4 ] 
Вы не можете начинать темы
Вы не можете отвечать на сообщения
Вы не можете редактировать свои сообщения
Вы не можете удалять свои сообщения